<?xml version="1.0" standalone="no"?>
<!DOCTYPE svg PUBLIC "-//W3C//DTD SVG 1.1//EN" "http://www.w3.org/Graphics/SVG/1.1/DTD/svg11.dtd">
<svg xmlns="http://www.w3.org/2000/svg">
<defs>
<font id="icofont" horiz-adv-x="1000" >
<font-face font-family="IcoFont" font-weight="400" font-style="Regular" units-per-em="1000" ascent="850" descent="-150" />
<missing-glyph horiz-adv-x="1000" />
<glyph glyph-name="search-1" horiz-adv-x="1000" unicode="&#xed11;" d="M800 146c-7 8-8 20-2 29 44 68 69 148 69 235 0 239-194 434-433 434-239 0-434-195-434-434 0-239 195-434 434-434 93 0 179 30 250 80 8 6 21 6 28-2l155-155c1-1 2-2 3-3 2-1 9-8 17-15l18-19c7-7 19-7 26 0l64 64c7 7 7 19 0 26l-195 194z m-104 62c-14-19-30-36-48-51-58-49-133-79-214-79-183 0-332 149-332 332s149 332 332 332c183 0 331-149 331-332 0-76-26-146-69-202z" />
<glyph glyph-name="search-2" horiz-adv-x="1000" unicode="&#xed12;" d="M973 10l-230 230c-34-54-79-99-132-133l229-230c37-36 96-36 133 0 36 37 36 96 0 133z m-223 465c0 207-168 375-375 375-207 0-375-168-375-375 0-207 168-375 375-375 207 0 375 168 375 375z m-375-281c-155 0-281 126-281 281 0 155 126 281 281 281 155 0 281-126 281-281 0-155-126-281-281-281z m-219 281h63c0 86 70 156 156 156v63c-121 0-219-98-219-219z" />
<glyph glyph-name="search-document" horiz-adv-x="1000" unicode="&#xed13;" d="M868 34c-7 7-8 20-3 29 27 43 43 95 43 149 0 158-129 287-286 287-158 0-287-129-287-287s129-286 287-286c59 0 114 18 159 49 9 6 22 5 29-2l98-98c0-1 1-1 2-2 1-1 8-7 15-15l3-3c7-7 19-7 27 0l32 33c8 7 8 19 0 27l-119 119z m-73 45c-10-12-20-24-32-33-38-33-87-53-141-53-121 0-219 99-219 219 0 121 98 219 219 219 120 0 219-98 219-219 0-50-18-96-46-133z m-282 494v48c0 5-4 9-9 9h-332c-5 0-10-4-10-9v-48c0-5 5-10 10-10h332c5 0 9 5 9 10z m-139-74h-202c-6 0-10-5-10-10v-47c0-5 5-10 10-10h134c19 26 42 48 68 67z m-110-137h-92c-5 0-10-4-10-9v-46c0-5 5-10 10-10h72c4 23 11 44 20 65z m-102-140v-47c0-5 4-9 10-9h72c-5 21-7 43-7 66h-65c-6 0-10-4-10-10z m-107-235c-5 0-9 4-9 9v806c0 5 4 10 9 10h438c5 0 12-4 15-8 18-20 35-40 53-60 21-24 42-48 62-73 4-3 6-11 6-16v-101c13-2 26-6 39-10v296c0 6-4 10-10 10h-641c-5 0-9-4-9-10v-885c0-5 4-9 9-9h388c-21 11-40 25-57 41h-293z" />
<glyph glyph-name="search-folder" horiz-adv-x="1000" unicode="&#xed14;" d="M906 144c-5 5-6 14-2 20 22 35 35 77 35 122 0 126-103 229-230 229s-229-103-229-229 103-230 229-230c48 0 93 15 130 41 6 4 15 3 20-2l80-80c0 0 1-1 1-1 1-1 6-6 12-11l4-5c6-5 14-5 19 0l29 29c5 5 5 14 0 19l-98 98z m-58 35c-7-10-16-19-25-27-31-26-70-42-114-42-96 0-175 79-175 176s79 175 175 175c97 0 176-79 176-175 0-41-14-78-37-107z m-410 100c0 92 46 172 116 219h-508c-38 0-40-18-38-41l34-373c2-23 8-41 46-41h496c-87 43-146 133-146 236z m332 311c-4 18-27 33-50 33h-282c-23 0-55 13-72 29l-24 24c-17 17-49 30-72 30h-135c-23 0-43-19-46-41l-12-108h702l-9 33z" />
<glyph glyph-name="search-job" horiz-adv-x="1000" unicode="&#xed15;" d="M801 146c-8 7-9 20-3 29 44 68 70 148 70 235 0 239-195 434-434 434-239 0-434-195-434-434 0-239 195-434 434-434 93 0 179 30 250 80 8 6 21 5 28-2l155-155c1-1 2-2 3-3 2-1 10-8 17-16l18-17c7-8 19-8 27 0l62 62c8 8 8 20 0 27l-193 194z m-105 62c-14-19-30-36-48-51-58-49-133-79-214-79-183 0-332 149-332 332s149 331 332 331c183 0 331-148 331-331 0-76-26-146-69-202z m-157 276c5 5 8 14 9 25 1 7 1 13-1 18-2 9-6 22-5 33 4 35-9 54-21 64-8 7-21 17-28 25-17 16-52 36-104 5-10-6-25-18-34-29-12-13-21-33-24-62-2-11-11-23-15-33-2-5-2-12-2-21 1-12 5-21 11-26 7-8 19-17 24-26 19-34 49-59 83-59 35 0 65 25 83 59 5 9 18 19 24 27z m-190 48c0 4 0 7 0 10 0 6 9 10 19 10 45 2 76 18 97 35 8 6 20 7 26-2 8-11 14-22 19-33 4-10 6-27 4-37-7-49-41-98-82-98-46 0-83 63-83 115z m62-171c0 1 1 2 1 3 1 2 2 3 2 4 0 0-1 0-1 0l-33 28c-8 7-21 10-29 9l-15-4c-49-11-84-53-84-101v-63c0-12 11-22 24-22h104c11 0 21 8 23 19l12 70c2 10-3 18-7 23-2 3-3 7-2 11l5 23z m101 44c-8 1-21-2-29-9l-33-28-1 0c0-1 1-2 2-4 0-1 1-2 1-3l5-23c1-4 0-8-2-11-4-5-9-13-7-24l12-69c2-11 12-19 23-19h104c13 0 23 10 23 22v63c0 48-34 90-84 101 0 0-6 2-14 4z" />
<glyph glyph-name="search-map" horiz-adv-x="1000" unicode="&#xed16;" d="M896 97c-6 6-7 17-2 24 22 36 35 79 35 125 0 131-106 238-238 238-131 0-237-107-237-238 0-132 106-238 237-238 50 0 95 15 133 41 8 4 18 4 24-2l81-82c1 0 1-1 2-1 1-1 7-7 13-13l2-2c6-6 16-6 22 0l28 27c6 6 6 16 0 22l-100 99z m-61 38c-7-10-16-20-26-28-32-27-73-43-118-43-100 0-181 81-181 182s81 182 181 182c101 0 182-82 182-182 0-42-14-81-38-111z m-544 45v529c0 9 7 12 14 9l222-113c8-4 14-14 14-23v-65c0-8 6-12 14-8s14 12 14 21v54c0 9 6 19 14 22l208 105c7 3 14 0 14-9v-181c0-9 6-19 13-23l1 0c8-5 13-1 13 7v239c0 9-6 13-13 9l-250-126c-8-4-20-4-28 0l-250 126c-7 4-20 4-27 0l-250-126c-8-4-14-14-14-23v-585c0-8 6-12 14-8l250 126c7 4 20 4 27 0l145-73c7-4 9-2 4 5-4 6-8 11-12 17-4 8-14 17-21 21l-102 51c-7 4-14 14-14 22z m-41-22l-208-105c-8-4-14 0-14 8v529c0 9 6 19 14 23l208 105c7 3 14 0 14-9v-529c0-8-7-18-14-22z" />
<glyph glyph-name="search-property" horiz-adv-x="1000" unicode="&#xed17;" d="M800 146c-7 8-8 20-2 29 44 68 69 148 69 235 0 239-194 434-433 434-239 0-434-195-434-434 0-239 195-434 434-434 93 0 179 30 250 80 8 6 21 6 28-2l155-155c1-1 2-2 3-3 2-1 9-8 17-15l18-19c7-7 19-7 26 0l64 64c7 7 7 19 0 26l-195 194z m-104 62c-14-19-30-36-48-51-58-49-133-79-214-79-183 0-332 149-332 332s149 332 332 332c183 0 331-149 331-332 0-76-26-146-69-202z m-510 253v-40c0-10 6-14 14-7l216 167c8 6 21 6 29 0l216-167c8-7 15-3 15 7v40c0 11-7 24-15 30l-216 168c-8 6-21 6-29 0l-216-168c-8-6-14-19-14-30z m61-70v-147c0-10 8-18 19-18h85c10 0 19 8 19 18v85c0 11 8 19 18 19h85c11 0 19-8 19-19v-85c0-10 8-18 19-18h85c10 0 19 8 19 18v147c0 10-7 23-15 29l-154 116c-9 6-22 6-30 0l-154-116c-8-6-15-19-15-29z" />
<glyph glyph-name="search-restaurant" horiz-adv-x="1000" unicode="&#xed18;" d="M800 146c-7 8-8 20-3 29 45 68 70 148 70 235 0 239-194 434-433 434-239 0-434-195-434-434 0-239 195-434 434-434 93 0 179 30 250 80 8 6 21 6 28-2l155-155c1-1 2-2 3-3 2-1 9-8 17-15l18-19c7-7 19-7 26 0l64 64c7 7 7 19 0 26l-195 194z m-104 62c-14-19-30-36-48-51-58-49-133-79-214-79-183 0-332 149-332 332 0 183 149 332 332 332 183 0 331-149 331-332 0-76-26-146-69-202z m-155 257c-3 3 1 11 8 18l69 69c7 7 11 14 9 17s-10-2-17-10l-69-69c-8-7-16-11-18-8s1 10 9 17l69 69c7 8 11 16 8 18s-10-2-17-9l-69-69c-7-7-16-11-19-8s1 11 8 18l72 67c7 7 11 15 9 17s-10-1-19-7l-76-59s-3-3-4-4c-8-8-13-17-15-27-2-10-1-27-4-37-1-5-3-9-4-13-4-10-16-11-23-4-110 105-173 130-201 135-10 1-19-1-21-2s3-9 11-16c29-30 102-103 157-158 8-7 8-19 0-26-39-39-130-131-130-131-9-8-9-22 0-31 8-8 22-8 30 0 1 1 92 92 131 131 7 7 18 8 25 1 6-6 10-10 11-11 11-11 116-115 116-115 8-9 22-9 31-1 4 5 6 10 6 16 0 9-12 21-19 28-20 20-56 57-76 77-7 7-21 16-29 22-7 4-13 10-18 17-5 9 0 24 8 31 13 10 30 18 51 18 14 0 28 5 39 14 0 0 1 1 1 1 1 1 7 8 13 16l52 66c7 8 10 16 7 19s-10-2-17-9l-66-70c-8-8-16-12-19-9z" />
<glyph glyph-name="search-stock" horiz-adv-x="1000" unicode="&#xed19;" d="M887 166c-5 5-6 14-2 20 25 39 39 84 39 134 0 138-112 250-250 250-138 0-251-112-251-250 0-139 113-251 251-251 53 0 102 17 142 45 6 4 15 4 20-2l88-87c1-1 1-2 2-2 1-1 6-6 11-11l7-7c6-5 14-5 19 0l33 33c5 5 5 14 0 19l-109 109z m-62 37c-8-11-17-21-27-30-34-28-77-45-124-45-106 0-192 86-192 192s86 191 192 191c105 0 191-86 191-191 0-44-15-85-40-117z m-637 314h-61c-8 0-13-6-13-13v-343c0-7 5-13 13-13h61c8 0 14 6 14 13v343c0 7-6 13-14 13z m141 144h-62c-7 0-13-6-13-13v-490c0-7 6-13 13-13h62c7 0 13 6 13 13v490c0 7-6 13-13 13z m275 0h-62c-7 0-13-6-13-13v-65c0-7 5-10 12-7 20 9 41 16 63 21 7 1 13 8 13 15v36c0 7-6 13-13 13z m-140-124c-16 1-45 1-61 1-8 0-13-6-13-13v-94c0-7 2-7 5-1 17 38 42 71 72 98 6 5 4 9-3 9z m-417-430v578c0 8-6 14-13 14h-21c-7 0-13-6-13-14v-625c0-7 6-13 13-13h498c7 0 8 3 1 6-15 10-29 20-43 32-5 5-15 9-23 9h-386c-7 0-13 6-13 13z" />
<glyph glyph-name="search-user" horiz-adv-x="1000" unicode="&#xed1a;" d="M905 37c-6 7-7 18-2 26 20 34 32 73 32 115 0 124-101 224-224 224s-223-100-223-224 100-223 223-223c46 0 88 14 123 37 8 5 19 5 26-2l74-75c1 0 2-1 2-1 1-1 7-7 13-13s17-6 24 0l22 23c7 6 7 17 0 24l-90 89z m-59 37c-7-9-15-18-24-26-30-25-69-40-111-40-94 0-170 76-170 170s76 171 170 171c95 0 171-76 171-171 0-39-13-75-36-104z m-469 281c124 0 224 100 224 224 0 124-100 225-224 225s-225-101-225-225 101-224 225-224z m93-43c5 8 2 11-7 8-27-11-56-16-86-16-68 0-132 27-179 77l-3 3s-4 2-6 1l-4-2c-100-58-165-159-185-285l0-2s0-3 1-4l2-2c99-120 232-186 374-186 59 0 117 12 172 34 9 4 9 11 1 16-69 50-115 132-115 224 0 49 13 94 35 134z" />
<glyph glyph-name="search" horiz-adv-x="1000" unicode="&#xed1b;" d="M991-96l-259 254c68 74 110 171 110 278 0 229-189 414-421 414-233 0-421-185-421-414 0-229 188-414 421-414 100 0 192 35 265 92l259-255c13-12 33-12 46 0 12 13 12 33 0 45z m-570 182c-197 0-356 157-356 350 0 193 159 350 356 350 196 0 356-157 356-350 0-193-160-350-356-350z" />
<glyph glyph-name="chart-arrows-axis" horiz-adv-x="1000" unicode="&#xe978;" d="M992-2c-38 30-76 59-114 89-3 2-6 5-10 3-5-2-5-6-5-11 0-15-1-31 0-46 0-9-3-11-12-11-63 0-126 0-189 0-171 0-342 0-512 0-11 0-13 3-13 13 0 81 0 163 0 245 0 130 0 260 0 390 0 7 2 9 9 8 16 0 32 0 48 0 5 0 9 0 11 5 3 4 0 7-3 11-30 38-60 77-90 115-6 9-12 9-18 1l-90-116c-3-3-5-6-3-11 2-4 6-5 11-5 14 0 28 0 43 0 14 0 14 0 14-14l0-162 0-508c0-27 13-41 39-41 123 0 247 0 370 0h37c112 0 225 0 338 0 7 0 10-1 10-9-1-15 0-31 0-46 0-5 0-10 5-13 5-3 8 1 12 4 37 29 75 59 112 88 11 9 11 12 0 21z m-165 368c-5-3-9-6-13-9-50-36-100-72-151-109-6-4-11-5-18-3-34 9-69 18-104 27-7 2-12 0-17-7-34-43-68-86-102-130-6-8-9-9-16-1-41 51-82 101-123 152-6 7-9 8-15 1-29-29-59-57-88-86-6-4-8-9-8-16 1-36 1-71 1-106 0-22 0-22 21-22 208 0 415 0 622 0 10 0 12 2 12 12-1 38 0 76 0 114-1 60-1 121-1 183z m-655 63c1-41 0-82 0-123v-39c6 2 8 5 11 8 28 28 56 55 83 84 8 8 12 7 18-1l123-148c6-7 8-6 14 1 29 37 59 74 87 112 7 8 13 10 23 7 38-9 76-17 114-26 7-1 12-1 18 4 52 39 105 78 158 116 5 4 7 8 7 15-1 42-1 84-1 126v41c-5-1-7-4-10-6-51-41-103-83-154-124-6-5-10-5-17-4-39 11-79 20-119 31-7 1-12 0-16-6-5-8-11-15-16-23-25-33-51-66-75-100-5-5-8-7-12 0-2 2-4 5-6 7-40 50-80 100-120 150-4 6-7 8-13 1-30-30-61-60-91-90-4-4-6-8-6-13z" />
<glyph glyph-name="chart-bar-graph" horiz-adv-x="1000" unicode="&#xe979;" d="M615 1c0-14 3-18 16-17 38 1 75 0 113 0 0 210 0 420 0 631 0 9-2 11-11 11-39-1-79-1-118-1 0-3 0-7 0-10 0-205 0-410 0-614z m-159-9c0-6 3-8 13-8 34 0 67 0 100 0 12 0 16 1 16 9-1 26-1 53-1 79 0 69 0 138 1 206 0 9-4 11-18 11-32-1-64-1-96 0-12 0-16-2-15-10 0-47 0-95 0-143 0-48 0-96 0-144z m-147-8c33 1 67 1 100 0 12-1 16 4 15 18 0 71 0 142 0 213s0 142 0 213c1 13-3 17-13 16-34 0-68 0-102 0-10 0-14-4-13-16 0-143 0-285 0-428-1-12 3-16 13-16z m-160 0c33 0 67 0 100 0 12 0 15 2 15 10 0 40 0 79 0 119 0 39 0 79 0 119 0 7-3 9-13 9-34-1-68-1-102 0-11 0-14-2-14-9 1-80 1-160 0-239 0-7 3-9 14-9z m637 0c34 0 67 0 100 0 12 0 16 2 16 8-1 30-1 61-1 92 0 30 0 61 1 92 0 5-4 7-14 7-34-1-68-1-102 0-10 0-13-2-13-7 0-62 0-123 0-185 0-6 3-7 13-7z m203-21h-938v815c0 6-4 11-10 11h-30c-6 0-11-5-11-11v-856c0-6 5-11 11-11h978c6 0 11 5 11 11v30c0 6-5 11-11 11z" />
<glyph glyph-name="chart-flow-1" horiz-adv-x="1000" unicode="&#xe97a;" d="M978 96h-70c0 3 0 6 0 9 0 81 0 162 0 243 0 26-16 41-42 41-106 0-212 0-317 0-3 0-6 0-9 1v146h16c29 0 58 0 88 0 28 0 42 15 42 43 0 68 0 136 1 204 0 23-7 40-30 48h-310c-23-8-30-25-29-48 0-67 0-134 0-201 0-7 0-14 2-20 5-16 19-26 39-26 31 0 62 0 93 0h12v-147h-11l-315 0c-26 0-41-16-41-42 0-82 0-163 0-244 0-2 0-4-1-7h-74c-12 0-22-10-22-23v-182c0-12 10-22 22-22h249c13 0 23 10 23 22v182c0 13-10 23-23 23h-100v219h293v-221h-9c-21 0-41 0-62 0-23 0-38-15-38-38-1-48 0-96 0-144 0-20 11-32 29-39h236c23 8 30 25 30 48-1 44-1 87-1 131 0 28-14 42-42 42-22 0-44 0-67 0v221h293v-219h-104c-13 0-23-10-23-23v-182c0-12 10-22 23-22h249c12 0 22 10 22 22v182c0 13-10 23-22 23z" />
<glyph glyph-name="chart-flow-2" horiz-adv-x="1000" unicode="&#xe97b;" d="M836 8c-14 54-56 91-114 97-47 5-98-19-124-68-2-5-4-9-10-9-57 1-115 0-172 1-39 0-64 20-75 54-2 9-4 18-4 27l0 199c0 7 2 7 7 5 25-10 50-14 76-14 55 0 110 0 165 0 7 0 10-2 13-8 23-42 59-66 107-69 54-4 106 30 126 81 19 51 4 111-38 145-65 52-157 33-196-41-2-4-4-7-9-7-58 0-116 0-175 1-36 0-62 21-72 54-3 10-4 21-4 31 0 37 0 74 0 111 0 5 1 8 7 11 46 25 70 64 70 116-1 52-27 90-73 114-1 1-3 1-4 2-39 16-82 6-83 6-8-2-15-4-22-8-31-16-52-38-64-69-14-43-6-77 1-95 11-28 30-49 57-64 8-4 10-8 10-16 0-160 0-319 0-478 0-47 13-89 42-126 36-45 85-63 141-64 54 0 107 0 161 0 10 0 16-2 21-12 30-55 98-79 157-56 60 23 93 87 78 149z m-124 416c41-1 73-33 73-74 0-40-33-73-73-73-41 0-74 33-74 74 0 40 34 74 74 73z m-426 226c-40 0-73 33-73 73 0 41 33 74 73 74 41 0 74-33 74-73 0-41-33-75-74-74z m425-745c-40 0-73 33-73 73 0 41 34 74 74 74 41-1 73-34 73-75 0-40-33-72-74-72z" />
<glyph glyph-name="chart-flow" horiz-adv-x="1000" unicode="&#xe97c;" d="M359 150c93 0 187 0 281 0 6 0 9-2 11-9 5-25 24-41 50-41 49 0 97 0 145 0 32 0 53 20 54 51 0 16 0 32 0 48-1 30-20 51-50 51-50 1-100 1-150 0-27 0-44-16-49-42-2-6-4-8-10-8-94 0-188 0-282 0-6 0-9 1-9 8 1 61 1 122 0 183 0 6 2 9 9 9 94-1 188-1 282 0 6 0 9-2 10-9 4-25 24-41 49-41 50 0 100 0 150 0 26 0 47 18 49 44 2 21 2 41 0 62-2 25-23 44-49 44-50 0-99 0-149 0-26 0-45-16-50-42-1-6-4-8-10-8-94 0-188 0-282 0-7 0-8 3-8 9 0 26 0 53-1 79 0 9 3 11 12 11 29 0 59 0 89 0 56 2 99 45 99 102 0 31-1 61 0 92 3 54-39 108-105 107-24-1-49 0-74 0-59 0-119 1-179-1-52-2-91-47-92-99 0-31 0-62 0-94 0-7 0-15 2-23 9-50 49-83 100-84 29 0 57 0 86 0 10 1 12-2 12-12 0-87 0-175 0-262v-61c0-68 0-135 0-203 0-9-2-11-11-11-12 1-24 1-36 1-31-1-52-21-53-52 0-15 0-29 0-44 0-35 20-55 55-55 13 0 26 0 39 0l101 0c31 0 48 14 55 44 1 6 5 6 10 6 60 0 121 0 181 0 6 0 9-1 10-8 4-25 21-41 46-41 52-1 104-1 156 0 26 0 45 20 47 46 1 18 1 37 0 56-2 27-23 47-50 47-50 1-100 1-150 0-25 0-45-17-49-41-1-7-3-9-10-9-60 1-120 0-180 0-7 0-10 2-12 9-4 25-24 41-49 42-14 0-27 0-40-1-8 0-9 3-9 10 0 44 0 87 0 131-1 7 1 9 8 9z" />
<glyph glyph-name="chart-growth" horiz-adv-x="1000" unicode="&#xe97d;" d="M938-49v-22c0-9-8-16-17-16h-842c-9-1-16 7-16 16v842c0 9 7 17 16 17h22c9 0 16-8 16-17v-788c0-9 7-16 16-16h788c9 0 17-7 17-16z m-469 529l193-48c8-2 19 2 24 10l60 101c5 8 15 10 22 6l43-26c7-5 14-1 14 8l3 186c0 9-6 12-14 8l-162-90c-8-4-8-12-1-16l43-26c7-4 10-14 5-22l-40-66c-4-8-15-12-24-10l-182 46c-9 2-21-2-27-8l-207-207c-7-6-7-16 0-23l15-16c7-6 17-6 23 0l185 186c7 6 19 9 27 7z m-62-458h77c9 0 16 7 16 16v362c0 9-7 18-15 20-8 2-20-2-26-8l-57-57c-6-6-11-19-11-28v-289c0-9 7-16 16-16z m-180 180v-164c0-9 7-16 16-16h77c9 0 16 7 16 16v235c0 9-5 11-11 4l-68-67c-6-6-30 1-30-8z m492 173v-337c0-9 7-16 16-16h77c9 0 16 7 16 16v395c0 9-6 20-14 24l-27 16c-8 5-18 3-22-5l-38-63c-5-8-8-21-8-30z m-55-337v321c0 9-7 18-16 20l-78 19c-8 2-15-3-15-12v-348c0-9 7-16 16-16h77c9 0 16 7 16 16z" />
<glyph glyph-name="chart-histogram-alt" horiz-adv-x="1000" unicode="&#xe97e;" d="M974 642c-78 68-156 136-234 204-6 5-4 6-11 0l-222-194-14-13 0-1h6c40 0 80 0 120 0 4 0 6 0 5-5-4-22-9-44-16-65-50-167-181-306-350-358-58-18-116-25-176-21-16 1-31 3-46 5-8 1-14-5-13-12 2-5 5-7 10-8 104-36 211-45 320-28 93 15 180 47 259 100 138 94 224 222 253 387 1 4 3 5 7 5 33 0 66 0 100 0 1 0 3 0 5 1 0 2-2 2-3 3z m-79-413v376c0 1 0 2-1 2-1 0-2-1-2-2 0-1-1-1-1-2-20-93-59-176-118-250-2-3-2-5-2-8 0-163 0-326 0-490 0-4 1-5 5-5 38 0 75 0 113 0 7 0 6-1 6 7 0 124 0 248 0 372z m-186 53c-2-1-3-2-4-3-36-32-75-61-118-84-3-2-3-4-3-7 0-111 0-222 0-333 0-4 1-5 5-5 38 0 75 0 113 0 6 0 7 2 7 7-1 139-1 279-1 418v7h1z m-187-126c0 6 0 6-6 4-37-16-75-28-114-36-4-1-5-3-5-7 0-87 0-174 0-261 0-5 1-6 6-6 37 0 75 0 113 0 5 0 6 1 6 6 0 50 0 100 0 150v150z m-379-41c-39 6-77 15-115 28-4 1-5 0-5-4 0-47 0-94 0-142 0-47 0-94 0-141 0-5 2-6 7-6 37 0 75 0 113 0 4 0 5 1 5 5 0 85 0 170 0 254 0 4-1 6-5 6z m192-8c0 4-1 5-5 5-38-5-76-6-115-4-4 0-5-1-5-6 0-82 0-164 0-247 0-4 1-5 6-5 37 0 75 0 113 0 5 0 6 2 6 6 0 42 0 83 0 125 0 42 0 84 0 126z" />
<glyph glyph-name="chart-histogram" horiz-adv-x="1000" unicode="&#xe97f;" d="M275 255c-38-42-77-84-115-127-16-17-25-17-42-1-8 8-17 17-25 25-11 11-31 3-31-13v-271c0-10 8-18 18-18h209c10 0 18 8 18 18v375c0 17-21 24-32 12z m312 17c-21-23-42-45-62-68-17-17-26-18-43-1-24 22-47 44-70 65-13 12-34 3-34-14v-384c0-11 9-20 20-20h204c11 0 20 9 20 20v388c0 19-22 28-35 14z m339 177c-2 1-4 3-7 5-23 23-46 46-69 69-4 5-10 7-16 7h0c-6 0-12-3-16-7-40-43-80-87-120-130-3-4-5-9-5-15v-506c0-12 9-22 21-22h202c12 0 21 10 21 22v559c1 8-4 14-11 18z m-403-146c96 105 192 209 288 313 7 7 10 8 17 0 24-25 49-49 73-73 11-11 26-10 33 2 2 5 3 11 3 16 0 89 0 177 0 266 0 16-8 23-24 23-45 0-89 0-134 0s-89 0-134 0c-10 0-18-3-21-13-4-9-1-16 6-23 28-27 54-55 82-81 7-7 8-11 1-19-72-79-143-158-213-238-7-7-11-6-17 0-43 39-86 79-130 118-13 12-23 12-35-1-83-89-165-179-247-268-11-13-11-22 1-34l62-61c16-16 25-16 40 1 56 62 113 124 169 186 6 6 9 7 16 0 41-38 82-76 123-115 17-15 26-15 41 1z" />
<glyph glyph-name="chart-line-alt" horiz-adv-x="1000" unicode="&#xe980;" d="M1000-87h-552c-125 0-250 0-375-1-2 0-3 1-4 1v124h58v63h-58v125h58v63h-58v124h58v63h-58v124h58v63h-6c-1 1-3 1-4 1-16-1-31 0-47-1h-1v125h58v63h-120v0h-7c0-330 0-661 0-991 0-5 4-9 9-9 327 0 655 0 982 0 1 0 3 0 4 0 4-1 5 1 5 5 0 19 0 38 0 58z m-791 429c6-5 8-4 13 1 19 24 39 47 58 71 6 7 9 7 17 2 171-114 342-228 514-343 7-5 10-4 14 4 21 39 43 78 64 117 3 6 5 7 12 3 15-8 30-16 47-25-1 63-3 125-4 188-54-33-107-65-161-98 17-9 32-18 48-26 5-3 6-5 3-11-11-18-21-37-31-56-6-10-6-10-16-4-168 112-336 224-504 336-4 3-8 7-13 0-33-40-66-79-99-118-3-4-3-6 1-10 13-10 25-20 37-31z m267 67c5-3 7-2 10 2 6 8 13 15 19 23 4 6 7 5 13 2 59-40 118-79 177-119 6-4 8-4 12 2 19 35 39 70 59 105 39 68 79 137 118 206 4 7 6 8 13 4 12-8 24-14 36-21 10-6 10-6 10 5 0 56-1 113-1 170 0 2 1 4-2 7-53-31-106-62-161-94 17-10 32-19 47-27 6-3 7-6 3-12-48-84-95-167-143-251-4-7-6-8-13-3-56 37-112 74-167 112-4 2-7 6-12 0-20-25-41-50-61-74-4-4-4-6 1-9 14-9 28-18 42-28z m-265-318c1-1 3-2 5-4 2 2 4 4 5 6 59 71 118 141 176 211 4 5 4 7-1 10-14 9-28 18-41 28-5 3-8 2-11-2-15-18-29-35-44-53-42-51-85-102-128-153-3-4-6-6 0-10 13-11 26-22 39-33z" />
<glyph glyph-name="chart-line" horiz-adv-x="1000" unicode="&#xe981;" d="M248 28c39 0 70 31 70 69 0 24-12 45-30 58l0 0c24 59 47 118 71 177 1 3 2 5 3 7 3-1 6-1 10-1 9 0 17 2 24 4 16-24 32-48 49-72-12-12-19-29-19-47 0-39 31-70 70-70s70 31 70 70c0 25-14 47-33 59l0 1c27 79 53 159 79 239 1 0 1 1 1 2 2 0 5 0 7 0 13 0 26 4 37 10 30-30 60-60 90-90-6-11-10-23-10-36 0-39 31-70 70-70s69 31 69 70c0 25-13 47-34 59 28 81 55 163 82 244 2 0 4-1 7-1 38 0 69 32 69 70s-31 70-69 70-70-31-70-70c0-25 13-46 32-59l0-2c-27-79-54-159-80-239 0-1-1-2-1-3-2 0-4 0-5 0-14 0-27-4-38-11-30 31-60 61-90 91 7 10 10 23 10 36 0 39-31 70-69 70s-70-31-70-70c0-25 13-47 33-59l0-2c-26-76-52-152-77-228-1-5-2-9-4-12-2 0-4 0-6 0-9 0-17-1-25-4-16 24-32 48-48 72 12 12 19 29 19 47 0 39-32 70-70 70s-70-31-70-70c0-23 12-44 30-57-25-61-49-122-74-184l0 0c-3 0-7 0-10 0-39 0-70-31-70-69 0-38 32-69 70-69z m197-116c-125 0-249 0-373 0-2 0-3 0-4 0v124h58v62h-58v124h58v62h-58v124h58v62h-58v123h58v63h-6c-1 0-3 0-4 0-16-1-31 0-47 0h-1v123h58v63h-119v-1h-7c0-327 0-655 0-982 0-5 4-9 9-9 325 0 649 0 974 0 1 0 2 0 4 0 4-1 5 1 5 5-1 19 0 38 0 57h-547z" />
<glyph glyph-name="chart-pie-alt" horiz-adv-x="1000" unicode="&#xe982;" d="M342 159c-3 2-5 5-8 7-68 62-97 139-81 230 19 104 100 182 204 200 9 1 10 5 10 12 0 81 0 161 0 242h-10c-17-3-33-5-50-8-199-43-329-162-390-357-2-6-3-11-5-17-5-20-24-114 0-227 28-125 97-225 203-300 5-4 8-4 11 2 40 68 79 137 118 205 3 5 4 8-2 11z m607 409c-3 6-5 7-11 4-68-40-135-81-203-121-6-3-7-5-4-11 2-3 3-6 4-10 28-87 16-169-43-240-67-82-176-110-275-74-9 3-11 0-15-6-39-70-79-140-118-210l8-5c16-6 31-13 47-18 195-60 367-20 515 120 5 4 9 8 13 12 14 16 77 88 112 198 36 123 25 243-30 361z m-413 28c62-10 113-39 154-88 4-5 7-6 13-2 67 39 135 78 203 117 7 4 6 7 2 13-20 28-43 55-68 79-72 66-155 109-251 127-17 3-34 5-50 8h-10v-244c0-5-1-9 7-10z" />
<glyph glyph-name="chart-pie" horiz-adv-x="1000" unicode="&#xe983;" d="M437 308c-2 3-2 7-2 11l77 405c1 9-5 17-14 19-21 3-42 4-64 4-246 0-445-205-433-454 10-226 196-408 422-414 64-2 126 11 181 34 21 9 29 34 18 53l-185 342z m534 162c-6 16-25 23-41 16l-336-159c-15-8-21-27-13-42l177-327c8-15 28-20 43-10 120 77 199 212 199 365 0 55-10 108-29 157z m-410-52l330 157c12 6 17 20 10 32-57 105-158 184-277 213-13 4-26-5-28-18l-68-359c-3-18 16-33 33-25z" />
<glyph glyph-name="chart-radar-graph" horiz-adv-x="1000" unicode="&#xe984;" d="M503 850c-276 2-502-219-503-499-1-275 220-499 500-501 275 1 497 221 500 495 3 277-219 503-497 505z m2-966c-261-2-470 204-472 465-1 257 206 466 465 468 258 2 467-207 469-467 1-254-208-465-462-466z m128 337c-6-2-9-2-13 3-12 17-25 34-38 51-3 5-4 9-1 15 10 25 9 51-6 75-33 53-109 51-141-3-2-4-4-9-11-7-18 3-37 7-55 10-6 1-8 2-7 8 0 9-1 19-5 28-3 7-1 9 5 13 53 29 106 59 159 89 7 4 12 4 18-2 25-26 65-31 97-14 31 18 48 55 40 89-11 48-58 76-105 61-46-15-69-65-50-110 3-9 1-11-6-15-52-29-105-58-157-88-7-4-11-3-16 3-28 34-78 39-112 12-35-27-43-76-18-111 20-28 47-39 80-35 31 5 53 23 64 52 3 7 5 10 13 8 16-4 33-7 49-9 8-1 9-4 8-11-6-40 17-78 56-90 35-10 65 0 90 28 13-17 25-33 37-49 6-7 6-10-2-16-35-26-46-73-28-113 17-38 59-62 99-55 56 10 91 62 78 116-13 54-68 84-122 67z m-127 53c-27 0-48 20-48 46 0 27 20 48 47 48 26 1 47-20 48-46 1-26-21-48-47-48z" />
<glyph glyph-name="bank-alt" horiz-adv-x="1000" unicode="&#xe961;" d="M929 26h-858c-5 0-8-4-8-8v-58c0-5 3-8 8-8h859c4 0 8 3 8 8v58c0 4-4 8-9 8z m-47 547c5 0 7 1 5 2-1 1-2 1-3 1-124 56-248 112-372 169-11 4-19 4-30-1-94-44-190-87-285-130-26-12-52-24-78-36-4-2-7-4-7-4 0-1 4-1 8-1h762z m-382 124c21 0 38-17 38-38 0-20-17-37-37-37-21-1-38 17-39 37 0 21 17 38 38 38z m-226-565c5 0 8 3 8 8v317c0 5-3 8-8 8h-91c-5 0-8-3-8-8v-317c0-5 3-8 8-8h91z m182-1c5 0 8 4 8 8v318c0 5-3 8-8 8h-91c-5 0-8-3-8-8v-318c0-4 3-8 8-8h91z m365 1c4 0 8 3 8 8v318c0 4-4 8-8 8h-92c-4 0-8-4-8-8v-318c0-5 4-8 8-8h92z m-183 0c5 0 8 3 8 8v318c0 4-3 8-8 8h-91c-5 0-8-4-8-8v-318c0-5 3-8 8-8h91z m-522 364h769c4 0 8 3 8 8v23c0 4-4 8-8 8h-769c-4 0-8-4-8-8v-23c0-5 4-8 8-8z m-8-402v-24c0-4 4-8 8-8h769c5 0 8 4 8 8v27c0 3-4 5-8 5h-769c-4 0-8-4-8-8z" />
<glyph glyph-name="bank" horiz-adv-x="1000" unicode="&#xe962;" d="M94 474h812s23 19 0 43l-406 239-406-239s-28-26 0-43z m839-497l-49 43c-3 2-9 4-14 4l-730-1c-5 0-11-2-14-4l-58-42c-3-2-5-6-5-9v-19c0-2 4-5 9-5h857c5 0 9 3 9 5v19c0 3-3 7-5 9z m-129 464h75v-375h-75v375z m-122 0h74v-375h-74v375z m-427 0h75v-375h-75v375z m-122 0h75v-375h-75v375z m369-374c5 0 11 1 16 2v46c24 5 41 15 54 30 12 14 18 32 18 54 0 13-2 23-5 32s-7 15-13 21c-6 6-13 11-21 15-8 5-17 9-27 13l-23 10c-4 1-8 3-12 5-4 2-7 4-10 6-4 3-6 6-8 9-2 4-3 9-3 14 0 6 2 11 4 14 2 4 5 7 9 9 4 2 8 4 12 4 5 1 9 1 14 1 7 0 14 0 19-1 6 0 11-1 16-2s9-3 13-4c4-2 8-3 12-5 6 15 11 30 12 45-11 4-21 6-30 9-10 2-20 3-31 4v40c-6 2-11 3-17 3-5 0-11-1-17-3v-41c-23-3-41-11-55-25-13-13-20-32-20-55 0-11 2-21 4-28 3-8 7-14 12-20 5-6 11-10 18-14s15-8 24-12l21-9c4-2 9-4 13-6 5-2 9-4 13-7 4-2 7-6 9-10 3-4 4-9 4-15 0-13-4-22-13-27-9-6-22-9-39-9-11 0-21 1-31 3-9 1-20 5-30 9-3-8-6-16-8-24-2-8-3-15-4-23 6-3 13-5 19-7 6-2 12-3 18-4 6-1 12-2 19-3 7 0 15-1 23-1h3v-41c6-1 12-2 18-2z" />
<glyph glyph-name="barcode" horiz-adv-x="1000" unicode="&#xe963;" d="M128 728h-60c-3 0-5-3-5-6v-744c0-3 2-6 5-6h60c3 0 6 3 6 6v744c0 3-3 6-6 6z m659 0h-59c-4 0-6-3-6-6v-744c0-3 2-6 6-6h59c4 0 6 3 6 6v744c0 3-2 6-6 6z m-359 0h-60c-3 0-5-3-5-6v-744c0-3 2-6 5-6h60c3 0 6 3 6 6v744c0 3-3 6-6 6z m195 0h-36c-4 0-6-3-6-6v-744c0-3 2-6 6-6h36c3 0 6 3 6 6v744c0 3-3 6-6 6z m-86 0h-24c-3 0-6-3-6-6v-744c0-3 3-6 6-6h24c3 0 6 3 6 6v744c-1 3-3 6-6 6z m-262 0h-31c-4 0-6-3-6-6v-744c0-3 2-6 6-6h31c3 0 6 3 6 6v744c0 3-3 6-6 6z m-64 0h-24c-3 0-6-3-6-6v-744c0-3 3-6 6-6h24c3 0 6 3 6 6v744c0 3-3 6-6 6z m721 0h-31c-4 0-6-3-6-6v-744c0-3 2-6 6-6h31c3 0 6 3 6 6v744c0 3-3 6-6 6z m-64 0h-24c-3 0-6-3-6-6v-744c0-3 3-6 6-6h24c3 0 6 3 6 6v744c0 3-3 6-6 6z" />
<glyph glyph-name="bill-alt" horiz-adv-x="1000" unicode="&#xe964;" d="M500 525c75 0 136-79 136-175s-61-175-136-175c-75 0-136 79-136 175s61 175 136 175z m-437-424h875v498h-875v-498z m157 49c0 67-54 122-122 122v156c68 0 122 55 122 122h560c0-67 54-122 122-122v-156c-68 0-122-55-122-122l-560 0z" />
<glyph glyph-name="billboard" horiz-adv-x="1000" unicode="&#xe965;" d="M929 181c5 0 9 4 9 9v486c0 5-4 9-9 9h-137v18c0 5-4 9-9 9h-20c-5 0-9-4-9-9v-18h-508v18c0 5-4 9-9 9h-20c-5 0-9-4-9-9v-18h-136c-5 0-9-4-9-9v-486c0-5 4-9 9-9h136v-34h-139c-4 0-6-3-6-6v-11c0-3 2-6 6-6h139v-127c0-5 4-9 9-9h20c5 0 9 4 9 9v127h508v-127c0-5 4-9 9-9h20c5 0 9 4 9 9v127h139c4 0 6 3 6 6v11c0 3-2 6-6 6h-139v34l137 0z m-175-34h-508v34h508v-34z m-650 62c-5 0-9 4-9 9v430c0 5 4 9 9 9h792c5 0 9-4 9-9v-430c0-5-4-9-9-9l-792 0z m760 423h-728c-7 0-13-6-13-14v-371c0-7 6-13 13-13h728c7 0 13 6 13 13v371c0 8-6 14-13 14z" />
<glyph glyph-name="briefcase-1" horiz-adv-x="1000" unicode="&#xe966;" d="M496 289c43 0 70-24 90-83 113 14 216 46 309 112 30 22 46 45 42 85-4 34-1 70-1 105 0 87-57 145-145 147-33 1-66-1-98 1-10 1-25 9-28 17-25 68-75 96-145 95-23 0-46 1-68-1-60-3-102-33-122-88-7-20-16-24-34-24-31 1-61 1-92 0-83-2-140-61-141-143 0-47-1-94 0-140 1-12 4-27 11-33 96-83 210-118 332-133 21 59 47 82 90 83z m-39 410c48-2 103 19 142-42h-202c10 31 33 44 60 42z m389-501c0-41-6-81-11-122-5-45-36-76-81-76-170-1-339-1-509 0-45 0-76 31-81 75-5 46-8 91-14 136-1 12-11 25-20 34-14 11-31 19-51 31 4-59 8-111 12-163 2-18 4-36 6-54 8-65 67-125 133-125 180-3 359-2 539-1 64 1 125 59 132 123 9 73 14 147 20 225-15-9-25-18-38-23-27-11-37-30-37-60z m-393-6c-1-43 11-61 41-62 30-1 45 16 45 55 1 39-15 61-43 61-26 0-43-21-43-54z" />
<glyph glyph-name="briefcase-2" horiz-adv-x="1000" unicode="&#xe967;" d="M634 711h-267c-25 0-46-21-46-46v-65h64v37c0 8 7 14 15 14h201c8 0 14-6 14-14v-37h64v65c0 25-20 46-45 46z m-571-668c0-29 24-53 53-53h768c30 0 53 24 53 53v323h-875v-323z m821 515h-768c-29 0-53-24-53-54v-89h875v89c0 30-24 54-54 54z" />
<glyph glyph-name="businessman" horiz-adv-x="1000" unicode="&#xe968;" d="M500 350c106 0 191 98 191 219s-85 219-191 219c-106 0-191-98-191-219s85-219 191-219z m-105 278c13-34 55-59 105-59s137 6 137-28c0-75-61-136-137-136s-137 61-137 136c0 34 13 64 32 87z m433-497c0 91-73 164-164 164h-125l12-11c6-6 6-16 0-22l-26-24c-7-6-10-17-6-24l50-123c3-7 2-19-3-25l-57-85c-5-7-13-7-17 0l-58 85c-5 6-6 18-3 25l50 123c4 7 1 18-6 24l-26 24c-6 6-6 16 0 22l12 11h-125c-91 0-164-73-164-164v-164c0-30 24-55 55-55h546c31 0 55 25 55 55v164z" />
<glyph glyph-name="businesswoman" horiz-adv-x="1000" unicode="&#xe969;" d="M330 390h170c-62 0-113 51-113 114v46c0 6 5 11 10 11 103 7 103 113 103 113s0-106 103-113c6 0 11-5 11-11v-46c0-63-51-114-114-114h171c24 0 44 15 53 36 4 11-6 21-17 25-21 8-36 29-36 53v113c0 94-77 171-171 171-94 0-170-77-170-171v-113c0-24-15-45-36-53-11-4-21-14-17-25 8-21 29-36 53-36z m341-80h-93c-11 0-14-7-6-15l27-27c8-8 10-23 3-32l-90-136c-6-9-17-9-23 0l-90 136c-7 9-5 24 3 32l27 27c8 8 5 15-6 15h-93c-63 0-113-51-113-114v-227c0-31 25-57 56-57h454c32 0 57 26 57 57v227c0 63-51 114-113 114z" />
<glyph glyph-name="chair" horiz-adv-x="1000" unicode="&#xe96a;" d="M248-55c0-18-14-33-32-33s-32 15-32 33c0 18 15 33 32 33s32-15 32-33z m283 0c0-18-14-33-31-33s-32 15-32 33c0 18 14 33 32 33 17 0 31-15 31-33z m284 0c0-18-14-33-31-33s-32 15-32 33c0 18 14 33 32 33s31-15 31-33z m-9 514h-78c-11 0-20-10-20-21 0-12 9-21 20-21h19v-102c-10-4-27-12-51-19l-14 14c-9 10-22 14-35 12 0 0-41-7-107-9v36c73 5 110 21 115 24 16 7 25 24 24 42l-31 319c-2 15-11 28-25 34-4 2-46 19-123 19-77 0-119-17-123-19-14-6-23-19-25-34l-31-319c-1-18 8-35 24-42 5-3 42-19 115-24v-36c-66 2-107 9-107 9-13 2-26-2-35-12l-14-14c-24 7-41 15-51 19v102h19c11 0 20 9 20 21 0 11-9 21-20 21h-78c-11 0-20-10-20-21 0-12 9-21 20-21h19v-115c0-7 4-14 10-18 1-1 20-12 55-24-2-8-1-18 2-26 6-15 21-26 37-26h143v-23c0-15 8-29 20-36v-71c-169-4-271-54-276-57-7-3-11-10-11-18v-6c0-4 10-6 22-6h0c13 0 32 3 44 7 42 15 119 35 221 38v-23s9-22 20-22c11 0 20 10 20 22v23c101-3 178-23 220-38 12-4 32-7 44-7h0c13 0 23 2 23 6v6c0 8-5 15-12 18-4 3-107 53-275 57v71c12 7 20 21 20 36v23h143c22 0 40 19 40 42 0 4 0 7-1 10 35 12 53 23 55 24 6 4 10 11 10 19v114h19c11 0 20 9 20 21 0 11-9 21-20 21z" />
<glyph glyph-name="coins" horiz-adv-x="1000" unicode="&#xe96b;" d="M598 497c0 148-120 268-268 268s-267-120-267-268 120-267 267-267 268 120 268 267z m-459 0c0 106 86 191 191 191s191-85 191-191c0-105-85-191-191-191s-191 86-191 191z m202-146v22c52 3 87 27 87 73 0 54-41 67-87 77v66c39-1 39-38 61-38 12 0 22 8 22 22 0 34-56 51-83 52v18c0 6-4 12-10 12-6 0-10-6-10-12v-18c-44-2-83-26-83-74 0-38 31-61 83-70v-73c-58 3-28 51-67 51-13 0-21-8-21-22 0-28 29-63 88-64v-22c0-6 4-12 10-12 6 0 10 6 10 12z m0 126c19-4 43-11 43-35 0-23-22-32-43-34v69z m-21 50c-26 5-39 15-39 33 0 15 16 28 39 29v-62z m563-69h-239c-5-39-17-76-36-109h275c30 0 55 24 55 54 0 30-25 55-55 55z m0-138h-292c-33-47-78-85-131-109h423c30 0 54 24 54 55 1 30-24 54-54 54z m0 275h-250c9-29 14-61 14-94 0-5 0-10 0-15h236c30 0 54 25 54 55 1 30-24 54-54 54z m0-412h-570c-31 0-55-25-55-55 0-30 24-55 55-55h570c30 0 55 25 55 55 0 30-25 55-55 55z m0-138h-570c-31 0-55-25-55-55 0-30 24-54 55-54h570c30 0 55 24 55 54 0 30-25 55-55 55z m0 579c30 0 55 24 55 54s-25 55-55 55h-337c32-31 59-68 76-109h261z" />
<glyph glyph-name="company" horiz-adv-x="1000" unicode="&#xe96c;" d="M504 654c32 0 59 30 59 67s-27 67-59 67-58-30-58-67 26-67 58-67z m-32 85c4-11 17-18 32-18 15 0 42 1 42-9 0-23-19-41-42-41-23 0-42 18-42 41 0 11 4 20 10 27z m-51-219h167c9 0 16 8 16 17v50c0 28-22 50-50 50h-38l4-3c2-2 2-5 0-7l-8-7c-2-2-3-6-2-8l15-37c1-3 1-6-1-8l-17-26c-2-2-4-2-5 0l-18 26c-1 2-2 6-1 8l16 37c1 3 0 6-2 8l-8 7c-2 2-2 5 0 7l3 3h-38c-27 0-50-22-50-50v-50c0-9 7-17 17-17z m25-407c0-37 26-67 58-67s58 30 58 67c0 37-26 67-58 67-32 0-58-30-58-67z m100-8c0-23-19-42-42-42-23 0-42 19-42 42 0 10 4 19 10 26 4-10 17-18 32-18 15 0 42 2 42-8z m8-75h-38l4-4c2-2 2-5 0-7l-8-7c-2-2-3-5-2-7l15-38c1-2 1-6-1-8l-17-26c-2-2-4-2-5 0l-18 26c-1 2-2 6-1 8l16 38c1 2 0 5-2 7l-8 7c-2 2-2 5 0 7l3 3h-38c-27 0-50-22-50-50v-50c0-9 7-17 17-17h167c9 0 17 8 17 17v50c-1 28-23 51-51 51z m214 83c0-37 26-67 59-67s58 30 58 67c0 37-26 67-58 67-33 0-59-30-59-67z m100-8c0-23-18-42-41-42-23 0-42 19-42 42 0 10 4 19 10 26 4-10 16-18 32-18 15 0 41 2 41-8z m9-75h-39l4-4c2-2 2-5 0-7l-8-7c-2-2-3-5-2-7l16-38c1-2 0-6-1-8l-18-26c-1-2-3-2-5 0l-17 26c-2 2-2 6-1 8l15 38c1 2 0 5-2 7l-8 7c-2 2-2 5 0 7l4 4h-39c-27 0-50-23-50-51v-50c0-9 8-16 17-16h167c9 0 17 7 17 16v50c0 28-23 51-50 51z m-704 16c32 0 58 30 58 67 0 37-26 67-58 67s-59-30-59-67c0-37 27-67 59-67z m-32 85c4-10 17-18 32-18 15 0 42 2 42-8 0-23-19-42-42-42-23 0-42 19-42 42 0 10 4 19 10 26z m82-101h-38l3-4c2-2 2-5 0-7l-8-7c-1-2-2-5-1-7l15-38c1-2 1-6-1-8l-18-26c-1-2-3-2-5 0l-17 26c-2 2-2 6-1 8l15 38c1 2 0 5-2 7l-8 8c-2 1-2 4 0 6l4 4h-38c-28 0-50-23-50-51v-50c0-9 7-16 16-16h167c10 0 17 7 17 16v50c0 28-22 51-50 51z m-48 197c12 0 22 10 22 22v88h285v-88c0-12 10-22 22-22 12 0 22 10 22 22v88h285v-88c0-12 10-22 22-22s22 10 22 22v110c0 12-10 22-22 22h-307v66c0 12-10 21-22 21s-22-9-22-21v-66h-307c-12 0-22-10-22-22v-110c0-12 10-22 22-22z" />
<glyph glyph-name="contact-add" horiz-adv-x="1000" unicode="&#xe96d;" d="M134 88c-14 0-26 12-26 27v523c0 15 12 27 26 27h640c14 0 26-12 26-27v-239c16-2 31-6 46-12v289c0 14-12 26-27 26h-730c-15 0-26-12-26-26v-599c0-14 11-26 26-26h479c-7 12-13 24-18 37h-416z m165 245h-20c-41 0-75-33-75-75v-21c0-13 11-24 24-24h252c13 0 23 11 23 24v21c0 42-33 75-75 75h-20c-10 0-18 9-18 19 0 4 2 7 4 10 12 11 21 26 28 42 2-2 3-2 5-2 10 0 23 24 23 41 0 16-1 29-12 29-1 0-3 0-4 0-1 44-12 100-80 100-71 0-80-55-80-100-1 0-2 0-3 0-11 0-13-13-13-29 0-17 13-41 24-41 1 0 3 0 4 1 7-16 16-30 27-41 3-3 4-6 4-10 0-10-8-19-18-19z m381 190c0 9-8 18-18 18h-211c6-14 11-31 12-51 5-3 8-7 11-13h188c10 0 18 8 18 18v28z m-2-151c1 2 2 5 2 7v28c0 10-8 18-18 18h-184c-5-19-17-39-34-44l-1-3v-16h213c7 3 14 7 22 10z m-125-125c9 23 21 44 37 63h-71c9-15 15-33 15-52v-11h19v0z m332 55c-31 31-73 51-120 52h-6c-50 0-94-20-126-52-32-32-53-77-53-126 0-25 6-49 15-71 9-21 22-40 38-56 32-32 76-52 126-52 99 0 179 80 179 179 0 49-20 94-53 126z m-41-152h-59v-59h-52v59h-58v52h58v58h52v-58h59v-52z" />
<glyph glyph-name="files-stack" horiz-adv-x="1000" unicode="&#xe96e;" d="M756 358l6 34c2 13-6 23-18 23h-485c-12 0-20-10-18-23l6-34c2-12 12-21 23-21h463c11 0 22 9 23 21z m-37-81h-435c-11 0-18-8-16-19l4-29c2-10 11-18 22-18h416c10 0 20 8 21 18l5 29c1 11-6 19-17 19z m207-115c-8 9-18 14-30 14h-792c-11 0-22-5-29-14-8-8-11-20-9-31l31-219h806l32 219c1 11-2 23-9 31z m-758 39l-41 273c0 34 27 61 61 61h622c34 0 61-27 61-61l-37-270h55l36 270c0 64-51 116-115 116h-622c-64 0-116-52-116-116l41-273h55z m36 432h568l10 43c1 4 0 9-3 12-3 3-7 6-12 6h-559c-4 0-8-2-11-6-3-4-4-8-3-13l10-42z m56 94h456l8 43c0 5-1 9-4 12-2 4-6 6-11 6h-443c-4 0-8-2-11-6-3-3-4-8-3-12l8-43z" />
<glyph glyph-name="handshake-deal" horiz-adv-x="1000" unicode="&#xe96f;" d="M200 367h-98c-22 0-39-17-39-38v-371c0-22 17-39 39-39h98c22 0 40 17 40 39v370c-1 22-18 39-40 39z m232-117h-97c-22 0-40-17-40-39v-253c0-22 18-39 40-39h98c22 0 39 17 39 39v253c0 22-18 39-40 39z m233 0h-97c-22 0-40-17-40-39v-253c0-22 18-39 40-39h97c22 0 40 17 40 39v253c0 22-18 39-40 39z m233 117h-98c-22 0-39-17-39-38v-371c0-22 17-39 39-39h98c22 0 40 17 40 39v370c0 22-18 39-40 39z m-293 336c-2 1-4 2-5 3l-114 35c-46 14-75-11-83-19-5-4-9-9-11-13l-50-117c-3-7-2-16 2-25 7-13 19-22 33-25 15-4 32 1 44 14 4 3 6 7 8 10l17 31c3 5 7 10 11 14 15 15 22 8 25 5 26-24 159-156 159-156 5-4 4-13-2-19-6-6-15-7-20-2l-37 37c-5 5-13 5-18 0-4-5-4-12 0-17l38-37c5-5 4-14-2-19-6-6-15-7-20-3l-37 37c-5 5-13 5-18 0-5-4-5-12 0-17l38-37c4-5 3-13-3-19-6-6-15-7-19-2l-38 36c-5 5-13 5-17 0-5-4-5-12 0-17l37-37c5-4 4-13-2-19-6-6-15-7-20-2l-46 45c7 10 5 24-5 33-10 11-27 12-37 2 10 10 9 26-2 37-11 11-28 11-37 2 9 10 8 26-3 36-10 11-27 12-37 3 10 9 9 26-2 36-10 10-25 12-35 4l-74 73c-5 4-13 4-18 0-5-5-5-13 0-17l74-73-22-21c-10-10-9-26 2-37 11-11 28-12 38-2-10-10-9-26 2-37 11-10 27-11 37-2-10-9-9-26 2-36 11-11 28-12 38-3-10-9-9-25 2-36 11-11 27-12 37-2l23 22 46-44c14-14 39-13 54 2 8 8 12 17 13 27 9 0 19 4 27 12 8 7 12 17 12 26 10 1 20 5 27 12 8 8 12 17 13 27 9 1 19 5 27 12 15 16 16 40 2 54l-19 19 78 77c5 4 5 12 0 17l-113 112z m186-28l-100 99c-10 9-25 9-35 0l-35-35c-10-9-10-25 0-34l100-98c10-10 25-10 35 0l35 34c10 9 10 25 0 34z m-53-50c-11 0-20 9-20 20 0 11 9 20 20 20s21-9 21-20c0-11-9-20-21-20z" />
<glyph glyph-name="id-card" horiz-adv-x="1000" unicode="&#xe970;" d="M476 212h-22c-11 0-20 9-20 20 0 4 2 8 5 10 12 13 23 29 30 46 2-1 3-2 5-2 12 0 26 27 26 45 0 18-2 32-13 32-2 0-3 0-5-1-1 49-13 110-88 110-78 0-87-61-88-109-1 0-2 0-3 0-12 0-13-14-13-32s14-45 26-45c1 0 2 0 4 1 7-17 18-33 30-45 3-3 4-7 4-11 0-11-9-20-20-20h-21c-46 0-82-36-82-82v-23c0-14 11-26 26-26h275c14 0 26 12 26 26v23c0 46-37 83-82 83z m274 226h-231c7-15 12-33 14-56 5-3 8-8 11-13h206c11 0 19 8 19 19v30c0 11-8 20-19 20z m0-126h-201c-5-21-19-43-37-48l-2-3v-19h240c11 0 19 9 19 20v30c0 11-8 20-19 20z m0-126h-157c11-17 17-36 17-57v-13h140c11 0 19 9 19 20v30c0 11-8 20-19 20z m69 462h-195c-2 0-3 2-3 4v104c0 1-2 3-4 3h-219c-2 0-3-2-3-3v-104c0-2-2-4-4-4h-210c-65 0-118-53-118-118v-471c0-65 53-118 118-118h638c66 0 119 53 119 118v471c0 65-53 118-119 118z m-369 52c0 1 2 3 3 3h109c1 0 3-2 3-3v-108c0-2-2-3-3-3h-108c-2 0-4 1-4 3 0 0 0 108 0 108z m432-641c0-34-28-62-63-62h-638c-34 0-62 28-62 62v471c0 34 28 62 62 62h210c2 0 3-1 3-3v-53c0-2 2-3 4-3h220c1 0 3 1 3 3v53c0 2 1 3 3 3h195c35 0 63-28 63-62l0-471z" />
<glyph glyph-name="meeting-add" horiz-adv-x="1000" unicode="&#xe971;" d="M313 460c0 5-3 8-8 8h-92c-5 0-9-3-9-8v-92c0-5 4-8 9-8h92c5 0 8 3 8 8v92z m155 8h-93c-4 0-8-3-8-8v-92c0-5 4-8 8-8h93c4 0 8 3 8 8v92c0 5-4 8-8 8z m-163-162h-92c-5 0-9-4-9-8v-93c0-4 4-8 9-8h92c5 0 8 4 8 8v93c0 4-3 8-8 8z m163 0h-93c-4 0-8-4-8-8v-93c0-4 4-8 8-8h93c4 0 8 4 8 8v93c0 4-4 8-8 8z m70 162c-5 0-8-3-8-8v-92c0-5 3-8 8-8h92c5 0 8 3 8 8v92c0 5-3 8-8 8h-92z m-315 158h21c13 0 24 11 24 24v114c0 13-11 24-24 24h-21c-13 0-24-11-24-24v-113c0-14 11-25 24-25z m377 0h21c13 0 24 11 24 24v114c0 13-11 24-24 24h-21c-13 0-24-11-24-24v-113c0-14 11-25 24-25z m-148-479h-284c-22 0-41 18-41 41v329h590v-127c4 0 9 0 13 0 17 0 33-2 48-4v268c0 30-24 55-54 55h-45v-59c0-32-26-58-58-58h-21c-32 0-58 26-58 58v59h-240v-59c0-32-26-58-58-58h-21c-32 0-58 26-58 58v59h-45c-30 0-55-25-55-55v-521c0-30 25-55 55-55h336c-3 17-5 34-5 52 0 5 0 11 1 17z m421 125c-37 37-87 60-142 62h-7c-59 0-111-23-149-62-38-38-62-91-62-149 0-30 6-58 17-83 11-25 26-47 45-66 38-38 90-61 149-61 116 0 211 94 211 210 0 58-24 111-62 149z m-49-180h-70v-69h-61v69h-69v62h69v69h61v-69h70v-62z" />
<glyph glyph-name="money-bag" horiz-adv-x="1000" unicode="&#xe972;" d="M813 52c8 25 12 53 12 87 0 184-125 323-228 387-15 9-18 26-7 39 118 142 76 225 9 166-73-64-123 22-259 54-104 25 8-142 66-221 11-14 6-32-9-42-102-65-222-202-222-383 0-36 5-66 13-91 6-17 5-42-2-58-6-19-6-34 3-42 8-8 23-8 40-3 17 5 41 5 58-2 57-25 131-31 213-31 83 0 158 6 216 32 16 7 40 7 57 2 19-7 35-6 43 2 10 9 9 26 1 47-7 16-9 41-4 57z m-239 61c-12-15-29-25-52-30v-44c-5-2-11-2-16-2-6 0-12 0-17 2v40h-4c-8 0-16 1-22 1-7 1-13 2-19 3-6 1-12 2-18 4-6 2-12 4-18 7 0 7 2 15 4 22 2 8 4 16 7 24 11-5 21-7 31-9 9-2 19-2 30-2 16 0 29 2 37 8 9 5 14 14 14 26 0 6-1 12-4 15-2 5-5 8-9 10-4 3-8 5-12 7-5 2-10 4-14 6l-20 8c-9 4-16 8-23 12-7 4-13 9-18 14-5 5-9 12-12 19-2 8-4 17-4 28 0 23 7 41 20 54 13 14 31 21 54 24v41c5 2 11 2 16 2 6 0 11 0 17-2v-40c10 0 20-2 30-4 9-2 19-5 30-9-2-15-6-29-13-43-4 1-7 3-11 4-4 2-8 3-13 4s-10 2-15 3c-6 0-12 1-19 1-5 0-9-1-14-1-4-1-8-2-12-5-3-2-6-4-8-8-3-4-4-9-4-15 0-5 1-9 3-13 1-3 4-6 7-9s6-4 10-6l12-5 23-10c10-4 18-8 26-12 8-4 15-9 20-15s10-13 13-21c3-8 5-19 5-31 0-21-6-39-18-53z" />
<glyph glyph-name="pie-chart" horiz-adv-x="1000" unicode="&#xe973;" d="M451 712c-214 0-388-174-388-389s174-388 388-388 389 174 389 388h-389v389z m487-344c0 107-44 204-114 275l-275-275h389z m-438 398v-389l275 275c-76 76-175 114-275 114z" />
<glyph glyph-name="presentation-alt" horiz-adv-x="1000" unicode="&#xe974;" d="M420 588h-144c-6 0-11-5-11-11v-147c0-6 5-10 11-10h144c6 0 11 4 11 10v147c0 6-5 11-11 11z m-144-278h448c5 0 10 5 10 11v37c0 6-5 10-10 10h-448c-6 0-11-4-11-10v-37c0-6 5-11 11-11z m447 277h-221c-5 0-10-4-10-10v-37c0-6 5-10 10-10h222c5 0 10 4 10 10v37c0 6-5 10-11 10z m0-109h-221c-5 0-10-5-10-11v-37c0-5 5-10 10-10h222c5 0 10 4 10 10v37c0 6-5 11-11 11z m-643 299v-85c0-5 5-10 10-10h48c5 0 10-4 10-10v-500c0-6 4-10 10-10h276c6 0 10-5 10-10v-164c0-6-4-10-10-10h-70c-5 0-10-5-10-10v-45c0-6 5-11 10-11h272c5 0 10 5 10 11v45c0 5-4 10-10 10h-70c-6 0-11 4-11 10v164c0 6 5 11 11 11h276c6 0 10 4 10 10v500c0 5 5 10 11 10h46c6 0 10 4 10 10v84c0 6-4 10-10 10h-819c-5 0-10-4-10-10z m706-560h-573c-6 0-10 5-10 10v443c0 6 4 10 10 10h573c6 0 10-4 10-10v-443c0-5-4-10-10-10z" />
<glyph glyph-name="presentation" horiz-adv-x="1000" unicode="&#xe975;" d="M63 767v-579c0-38 29-69 65-69h744c36 0 66 31 66 69v579h-875z m810-518c0-33-25-59-55-59h-635c-31 0-56 26-56 59v383h746v-383z m-179-267l-176 166c-4 4-11 6-17 6l-1 0-1 0c-6 0-13-2-17-6l-175-166c-9-9-9-22 0-31s23-8 32 0l139 133v-129c0-12 10-22 22-22s23 10 23 22v129l139-133c9-8 23-8 32 0 8 9 8 22 0 31z m-356 430l150 20c-4 25-15 49-33 70-52 59-145 66-207 17s-71-138-18-197c51-58 142-66 205-18l-97 108z m212 79h257v-26h-257v26z m0-70h257v-26h-257v26z m0-69h164v-27h-164v27z" />
<glyph glyph-name="stamp" horiz-adv-x="1000" unicode="&#xe976;" d="M911 136c-10 42-43 69-85 69-49 0-97 1-146 0-15-1-26 4-36 14-28 26-46 58-50 97-4 34 1 67 12 99 15 40 31 80 47 120 12 30 23 61 19 95-6 42-20 79-49 108-44 42-97 56-154 47-47-8-86-32-112-75-30-48-39-100-17-155 7-20 16-39 24-59 16-39 33-78 40-120 12-65-3-119-52-162-7-6-14-9-24-9-51 0-102 0-152 0-31 0-57-12-74-40-7-11-10-25-16-39v-128c7-16 22-12 35-13v-49c0-18 6-23 22-23h716c14 0 20 6 20 21 1 6 0 12 0 19v32h15c14 1 20 7 20 22 0 35 0 71 0 106 0 8-1 16-3 23z m-66-186h-689v35h689v-35z" />
<glyph glyph-name="stock-mobile" horiz-adv-x="1000" unicode="&#xe977;" d="M709 787h-418c-26 0-48-21-48-47v-780c0-26 22-48 48-48h418c26 0 48 22 48 48v780c0 26-22 47-48 47z m-250-45h82c5 0 10-5 10-10 0-5-5-10-10-10h-82c-5 0-10 5-10 10 0 5 5 10 10 10z m41-794c-15 0-27 12-27 27s12 27 27 27 27-12 27-27-12-27-27-27z m204 106c0-13-10-23-23-23h-362c-13 0-23 10-23 23v615c0 13 10 23 23 23h362c13 0 23-10 23-23v-615z m-272 21v159c0 13-10 23-23 23h-54c-13 0-23-10-23-23v-159h100z m118 0v205c0 12-10 22-23 22h-54c-13 0-23-10-23-22v-205h100z m118 0v282c0 12-10 23-23 23h-54c-13 0-23-10-23-23v-282h100z" />
<glyph glyph-name="cassette-player" horiz-adv-x="1000" unicode="&#xec99;" d="M962 563h-94c0 47 0 94 0 141 0 3 0 7 0 11 0 24-12 35-36 35h-112c-183 0-367 0-550 0-8 0-16 0-23-4-11-7-15-17-15-30 0-51 0-102 0-153h-94c-21 0-38-17-38-38v-536c0-22 17-39 38-39h924c21 0 38 17 38 39v536c0 21-17 38-38 38z m-92-349c-1-43-36-77-79-77-43 0-77 36-76 80 0 41 36 76 78 75 43-1 77-35 77-78z m-303 13c0-7-2-9-9-9-39 1-78 1-117 0-7 0-8 3-8 10 0 21 0 43 0 65 0 21 0 42 0 63 0 6 1 9 8 9 39-1 78-1 117 0 6 0 9-1 9-9 0-43 0-86 0-129z m-281-13c-1-42-36-77-78-77-43 0-78 35-78 78 0 43 35 77 78 77 43 0 78-35 78-78z m-91 463c0 8 3 10 10 10 99 0 197 0 296 0 98 0 195 0 293 0 8 0 11-2 11-11 0-37 0-75 0-113h-119c0 9 0 18 0 28 0 17-14 32-31 32-17 0-31-14-32-31 0-10 0-19 0-29h-91c0 9 0 18-1 27 0 19-13 32-30 33-18 0-32-14-32-33-1-9-1-18 0-27h-92c0 9 0 18 0 27 0 18-14 33-31 33-18 0-32-15-32-33 0-9 0-18 0-27h-119c0 38 0 76 0 114z" />
<glyph glyph-name="cassette" horiz-adv-x="1000" unicode="&#xec9a;" d="M1000 596v-490c0-7-2-13-4-19-15-45-56-71-108-71-167 0-334 0-500 0-94 0-188 0-282 0-52 1-93 34-104 84 0 1-1 4-1 4l-1 490c0 3 0 6 1 8 9 43 46 82 90 82 29 0 44 0 71 0 11 1 16-4 22-13 36-61 72-121 108-182 6-10 13-14 24-14 122 0 244 0 366 0 12 0 20 4 26 15 37 62 75 124 112 186 3 6 6 8 13 8 21-1 41 0 62 0 48-1 92-32 104-78 1-3 1-5 1-10z m-500-205v0c-34 0-68 0-102 0-14 0-23-8-23-21 0-41 0-82 0-123 0-14 9-22 22-22 69 0 137 0 205 0 14 0 23 9 23 23 0 40 0 80 0 120 0 16-8 23-24 23-33 0-67 0-101 0z m-395-82c-1-58 45-104 103-105 57 0 104 47 105 104 0 57-47 104-104 104-57 1-104-46-104-103z m685-105c57-1 104 45 105 104 2 55-45 103-101 104-57 2-105-44-106-101-2-57 44-105 102-107z m-14 479c-23-37-44-74-66-110-10-17-20-33-30-50-3-5-6-7-12-7-112 0-224 0-335 0-5 0-9 0-12 5-31 53-63 106-95 158 0 1 0 2-1 4h551z m-276-417c-25 0-49 1-74 0-8 0-10 3-10 10 1 22 0 44 0 66 0 6 2 8 8 8 51 0 101 0 152 0 6 0 8-2 8-8-1-22-1-45 0-68 0-7-3-8-9-8-25 0-50 0-75 0z m-354 42c0 35 28 63 62 63 34 0 63-28 63-62 0-35-28-63-62-63-35 0-63 27-63 62z m708 0c0-34-28-62-62-62-35 0-63 28-63 62 0 34 28 63 63 63 34 0 62-28 62-63z" />
<glyph glyph-name="forward" horiz-adv-x="1000" unicode="&#xec9b;" d="M498 850c-274-2-498-228-496-501 1-276 228-501 502-499 275 2 497 227 495 501-2 278-226 501-501 499z m220-533c-59-35-119-69-180-102-35-20-57-6-58 35 0 9 0 18 0 26-36-20-71-41-108-61-35-20-57-6-58 35 0 33 0 66 0 100h0c0 35 0 70 1 105 1 35 24 49 54 32 38-21 74-43 111-64 0 11 0 21 1 32 1 35 24 49 55 32 62-34 123-70 184-107 31-18 29-44-2-63z" />
<glyph glyph-name="guiter" horiz-adv-x="1000" unicode="&#xec9c;" d="M606 397c35-58 31-106-9-148-35-36-68-75-102-112-6-7-8-14-7-24 16-118-54-224-169-255-134-37-273 60-285 199-12 128 76 236 203 251 2 1 5 1 8 1 30-7 50 8 68 31 26 33 55 63 83 93 39 43 78 51 132 29 10-4 12-7 4-15-67-74-134-148-200-223-3-2-5-5-8-8-10-13-20-20-38-21-40-1-73-42-69-81 4-45 42-78 84-75 43 4 76 40 73 82-1 13 2 21 11 30 70 78 140 156 210 234 3 4 7 7 11 12z m-377-278c1 38 32 68 69 66 10-1 15 1 22 8 105 118 211 236 317 354 40 44 80 88 119 132 4 5 9 9 6 17-7 18-2 35 10 49 8 9 4 13-5 14-11 1-17 6-16 17 0 8 5 14 13 15 11 1 17-4 19-15 1-4 3-9 8-8 5 2 10 7 11 14 1 5-4 6-9 6-11 1-16 7-16 18 1 8 6 13 14 14 10 1 16-3 18-14 1-5 3-10 9-8 4 2 9 8 11 13 1 5-5 6-10 6-9 2-16 7-16 17 0 9 6 15 15 16 9 1 16-4 18-14 2-11 7-11 17-7 26 12 49 3 69-15 19-17 30-40 21-66-4-12-1-16 10-17 9-1 15-6 15-16-1-8-5-14-13-15-10-2-17 3-19 12-2 5-2 12-9 10-5-2-10-7-11-13-1-6 5-6 10-7 9-2 16-6 15-17-1-9-6-14-14-15-10-1-16 4-18 13-1 5-3 11-8 10-6-2-11-8-12-14-1-5 6-6 11-7 9-1 15-6 15-16-1-8-6-14-14-16-10-1-16 4-18 13-3 12-7 14-15 5-12-13-28-17-45-15-8 1-13-1-19-7-145-162-291-325-437-486-7-8-7-16-5-25 4-38-25-73-64-74-38-2-70 30-69 68z" />
<glyph glyph-name="movie" horiz-adv-x="1000" unicode="&#xec9d;" d="M501 850c-274 2-500-223-501-500-1-275 222-498 498-500 277-1 500 220 502 498 2 275-221 499-499 502z m-1-940c-243 0-438 195-440 438-1 244 196 441 440 441 244 0 439-194 440-438 1-244-196-441-440-441z m-122 517c74 0 136 62 137 135 0 74-62 136-136 136-74 1-136-61-137-135 0-73 63-136 136-136z m299-36c73-1 136 62 137 136 1 72-62 136-135 137-73 0-137-62-137-136-1-73 61-136 135-137z m36-27c-74 0-136-62-136-136 0-74 62-136 136-135 74 0 137 62 136 135 0 74-62 136-136 136z m-261-136c-75 0-135-61-134-135 0-75 61-135 136-135 75 1 135 62 135 137-1 75-61 134-137 133z m-73 76c0 74-62 135-136 135-74-1-134-62-134-137 0-74 62-136 136-135 74 0 134 62 134 137z m86 45c0-19 16-35 36-35 19 1 35 17 35 36-1 20-17 35-36 35-20 0-35-16-35-36z" />
<glyph glyph-name="multimedia" horiz-adv-x="1000" unicode="&#xec9e;" d="M461 351l0 0c0 1 0 1 0 2 0 7-5 13-12 13h-68c-7 0-13-6-13-13 0-1 1-2 1-3 0 0-1 0-1 0 0-11-6-10-13-10-82 0-164 0-246 0-12 0-16 4-16 16 0 51 0 103 0 154 0 13 5 17 16 16 30 0 60 0 90 0 10 0 19 0 19 16 0 14-9 13-18 13-61 0-121 0-181 1-16 0-19-6-19-20 1-142 1-283 0-424 0-16 5-20 20-19 70 0 141 0 211 0 71 0 142 0 213 0 13 0 18 2 17 16 0 76 1 159 0 235 0 6 0 7 0 7z m-30-11c10-1 16-6 16-16 0-9-6-14-15-15-9-1-19-1-28 0-10 0-19 4-18 16 1 12 9 16 20 16h10c5 0 10 0 15-1z m-401 186c10 1 19 0 28 0 11 0 20-5 19-16 0-11-8-16-19-16-4 0-9 0-13 0v0c-5 0-10-1-15 0-9 2-14 7-14 16 0 9 5 15 14 16z m31-403c-9 0-17 0-26 0-11 0-19 3-19 15-1 13 8 17 20 16 3 0 7 0 11 0v0c5 0 10 0 15 0 9 0 15-6 15-15 0-9-6-15-16-16z m-4 61c-3 1-7 0-10 0v1c-6 0-12-1-18 0-9 1-14 7-13 16 0 8 4 14 13 14 10 1 20 1 30 1 11 0 19-5 18-16-1-11-9-16-20-16z m6 63c-6-2-12-1-18-1v0c-5 0-10-1-15 0-9 2-16 8-14 18 3 17 17 15 29 15 13 0 28 3 32-14 3-11-5-16-14-18z m-1 62c-9-1-18 0-26-1-12 0-21 4-20 17 0 11 8 16 19 16 4 0 7 0 11 0v0c5 0 10 0 15-1 10-1 16-6 16-16 0-10-7-14-15-15z m2 93c8-2 13-7 13-15 0-9-5-15-14-16-9 0-19 0-28 0-11-1-19 3-19 15 0 13 8 17 20 16 3 0 7 0 11 0v0c5 0 11 0 17 0z m-1 31c-10-1-19 0-28-1-12 0-19 5-19 16-1 11 7 16 18 15 5 0 9 0 13 0v0c5 0 10 0 15 0 10 0 15-6 15-15 0-8-6-15-14-15z m291-310c-42 1-83 0-124 0-40 0-80 1-120 0-13 0-18 3-17 17 0 51 0 103 0 154 0 12 4 16 16 16 82 0 164 0 246 0 11 0 15-3 15-15-1-52-1-104 0-156 0-13-4-16-16-16z m75 0c-4 0-8 0-13 0s-8 0-13 0c-10 0-17 5-17 15 0 11 6 16 17 16 8 0 17 0 26 0 11 0 19-5 18-16 0-10-8-15-18-15z m-1 61l-21 0c-12 0-21 4-21 17 0 13 10 15 20 15 4 0 7 0 11 0v0c4 0 9 0 13 0 10 0 18-4 17-15 0-11-8-16-19-17z m6 63c-6-2-11-1-17-1-6 0-12-1-17 1-9 2-14 7-14 16 0 9 6 14 13 15 12 1 23 1 35 0 8-1 14-7 14-16-1-9-7-13-14-15z m101 159h-17c-76 0-153 1-229 0-13 0-19 3-19 18 1 82 1 164 0 246 0 13 5 17 18 17 133-1 267-1 400 0 14 0 17-5 17-18 0-21 0-42 0-63l0 2v-101c8 1 19 3 28 3h0v1c1 0 2 0 2 0 0 4 0 6 0 11-1 59-1 118 0 176 0 16-5 18-19 18-151 0-303 0-454 0-15 0-20-3-20-19 0-101 0-201 0-302 0-16 5-19 20-19 77 1 153 1 230 0 9 0 16-1 22 0 6 10 14 21 21 30z m-156 153c25-1 48 23 47 47-1 25-22 45-47 44-26 0-45-19-44-45 0-25 20-46 44-46z m189-118c18 16 38 30 60 41l-75 114c-2 3-6 3-8 1l-58-82c-1-2-3-2-5-1l-53 26c-2 1-4 0-5-1l-85-90c-3-3-1-8 3-8l226 0z m188 39c-139 1-250-109-251-247-1-134 112-248 247-249 135 0 248 112 248 248 1 135-110 248-244 248z m-160-277v4c4 8 8 15 16 19 4 2 8 3 12 3 3 1 6 0 6-4 1-3-1-6-4-6-10-2-16-7-19-16-2-5-7-4-11 0z m25-31c-1-2-3-4-7-4-3-1-5 3-4 7 5 19 18 32 37 38 3 0 6 1 9 1 4 1 8 0 8-4 1-5-2-6-6-7-12-1-22-6-29-15-4-5-7-10-8-16z m192-26c-8-1-17 0-24 4-7 3-12 7-15 14-6 10-4 20 3 29 7 9 15 14 26 16 4 1 8 1 12 1 7 0 13-2 19-5 1 0 1 0 1 0 0 2 1 5 1 8l1 24c1 6 1 13 1 19 1 6 1 13 1 19 1 6 1 13 1 19 1 6 1 11 1 16 0 1 0 2-1 2-5-1-10-1-15-2l-17-2c-5 0-10-1-15-1-6-1-11-1-17-2l-15-1c-5-1-11-2-17-2l-14-2c-4 0-8 0-12-1-1 0-1 0-1-1 0-6-1-12-1-19 0-10-1-21-1-32-1-7-1-14-1-21l-1-29c-1-7-1-14-1-21-1-5-1-9-1-14-1-6-3-11-7-15-7-8-16-13-26-15-2 0-5-1-7-1 0 0-1 0-1 0h-4c0 0 0 0-1 0-8 0-15 3-22 8-5 3-9 8-12 15 0 1 0 3-1 5v6c1 0 1 1 1 1 1 6 4 11 8 16 10 9 21 13 34 13 7 0 14-1 20-4 1 0 1 0 1 1 0 5 0 10 1 16l1 30 1 23 1 30c0 8 0 16 1 24 0 8 0 17 1 25 0 1 0 1 1 1 5 1 11 1 17 1 8 1 17 2 25 2 9 1 17 2 26 2 8 1 17 2 25 2 10 1 20 2 30 3 11 0 21 1 31 2 1 0 2 0 4 0 0 0 0 0 0 0v-1c0-2 0-5 0-7-1-9-1-18-2-26 0-7 0-13 0-20-1-10-1-21-2-32 0-9-1-17-1-26 0-11-1-21-1-32-1-8-1-17-1-25-1-4-1-9-2-13-2-6-6-10-11-14-7-7-16-10-26-11z m43-17c-1 0-4 0-5-2h-4c-6 6-5 9 2 12 8 2 13 7 15 15 0 4 2 6 6 6 5-1 5-4 5-8-3-11-9-18-19-23z" />
<glyph glyph-name="music-alt" horiz-adv-x="1000" unicode="&#xec9f;" d="M857 602c-41 87-130 146-262 178h-1c-9 2-19 4-28 6-67 10-96-21-101-50l-75-505c-25 12-53 19-82 19-50 2-98-15-134-46-36-31-56-73-57-118-2-84 66-158 157-171 9-2 18-2 27-2 96-3 176 63 190 155l74 495c7 0 14-1 21-2 84-13 156-59 208-135 21-31 35-61 43-80 2-5 7-8 12-8 5 0 10 3 11 8 19 55 43 160-3 256z" />
<glyph glyph-name="music-disk" horiz-adv-x="1000" unicode="&#xeca0;" d="M387 387c13 0 21 8 22 22-1 13-8 22-22 21-14 0-22-8-21-22 0-13 8-20 21-21z m-15-184c77 65 201 87 291 33 2 0 4-1 6-1 3 6 1 13 1 19 0 138 1 275 0 413 0 1 0 2 0 4-70 76-171 125-283 125-214 0-387-174-387-387 0-191 128-348 310-378-32 54 0 119 62 172z m-235 329c-3-5-7-10-11-15-3-4-6-8-12-6-5 2-5 8-5 13-1 7 2 14 6 20 32 60 78 104 137 136 1 0 1 0 2 0 10 3 22 14 29 1 8-15-9-18-17-23-56-29-99-71-129-126z m84-30c-3-3-7-6-11-4-5 2-5 7-5 12 0 2 0 5 1 8 17 34 44 60 79 76 5 2 11 2 15-4 3-6 1-12-4-16-31-18-53-45-75-72z m167 16c61 0 109-48 109-110-1-61-49-109-111-108-61 0-108 48-108 110 0 61 49 109 110 108z m602-96c-25 59-74 96-130 128-27 15-54 29-82 43-12 6-19 14-16 29 3 20-3 36-22 46h-14c-20-8-25-23-25-44 0-138 0-275 0-413 0-6 2-12-2-19-2 1-3 1-5 2-91 53-222 33-299-32-92-77-76-194 34-240 91-38 215-14 285 56 32 32 49 69 48 115-1 117 0 234-1 351 0 13 1 19 16 17 54-10 103-29 144-66 28-25 50-54 67-88 21 51 10 95 2 115z" />
<glyph glyph-name="music-note" horiz-adv-x="1000" unicode="&#xeca1;" d="M911 104c5 15 5 30 5 46 2 30 3 59 5 89 1 38 3 76 4 114 2 32 3 63 5 94 1 39 3 78 5 116 1 23 1 46 2 70 2 31 3 62 5 93 0 8-1 17 1 26 0 1 0 2 0 4 0 1-1 0-2 0-4-1-9-1-13-1-36-3-72-6-109-8-36-3-72-6-107-9-31-2-62-4-92-7-31-2-61-4-92-7l-92-7c-20-1-40-3-60-4-2 0-3-1-3-4-1-30-3-61-4-91-1-28-2-57-3-85-2-35-3-71-4-107-1-28-3-56-4-84-1-35-2-71-4-107-1-19-1-39-2-58 0-3-1-4-4-2-22 11-46 16-71 15-46-2-88-15-121-49-16-16-27-33-31-55 0-2 0-4-1-6v-20c1-6 2-13 4-19 7-23 22-40 41-54 24-17 51-26 81-27 0 0 1 0 2-1h14c1 1 2 1 3 1 9 0 18 2 27 4 36 7 67 24 91 52 14 16 23 35 26 56 2 16 2 32 2 48 2 26 3 51 4 77 1 34 2 69 4 103 1 26 2 51 3 77l5 114c1 23 2 45 3 67 0 3 1 4 4 5 14 1 28 2 42 4 17 2 34 3 51 5 21 2 42 4 63 6l52 6c20 2 41 4 62 6l52 5c20 2 41 4 61 6 18 2 36 4 54 6 4 0 5-1 5-4-2-20-3-39-4-59-1-23-2-46-3-68-2-23-3-45-4-68-1-22-3-45-4-68-1-29-3-58-5-87 0-10-1-19-1-29-2 0-3 1-4 2-22 10-44 16-68 17-15 0-29-1-44-4-38-8-70-25-93-56-26-33-31-69-12-106 11-24 31-38 54-49 28-13 57-17 87-14 35 3 66 15 93 38 17 14 31 31 39 52z m-802 170c11 1 17 11 15 23-2 13-11 17-24 16-14-2-27-6-40-12-30-14-52-37-59-67-1-6-2-11 0-16 9-21 33-18 39-1 11 34 33 53 69 57z m875-211c-15 2-21-7-24-21-6-28-24-46-51-55-27-8-36-31-10-42 5-2 11-2 15 0 8 3 14 6 21 9 34 16 57 42 64 81 3 13 0 25-15 28z m-738 180c-3 16-16 18-30 15-11-1-21-3-32-6-69-20-113-65-133-133-5-17 3-28 15-28 15 0 21 7 23 17 6 21 16 40 29 56 27 33 62 50 104 55 14 2 27 7 24 24z" />
<glyph glyph-name="music-notes" horiz-adv-x="1000" unicode="&#xeca2;" d="M490 436l327 53v-444c0-36-27-66-70-76-47-12-92 8-101 44-9 36 22 74 69 86 21 5 42 4 59-2v267l-240-44-1-332c0-32-28-63-69-72-46-12-95 10-100 43-9 36 21 74 68 85 21 6 41 5 58-1v393z m-123-163l2 411s89 5 177-132c0 0 0 70-67 122-132 92-131 114-131 114-26-3-28-22-28-22v-433c-19 7-41 8-64 2-51-12-85-55-75-94 6-36 59-60 110-47 45 11 76 45 76 79z m238 266c16 3 27 15 27 27l0 143s31 2 62-46c0 0 0 25-24 43-45 32-45 39-45 39-9-1-10-7-10-7v-151c-6 3-14 3-22 1-18-5-30-19-26-33 2-12 20-21 38-16z m154-1c11 3 19 11 19 20l0 99s22 1 43-32c0 0 0 17-16 30-32 22-32 27-32 27-6-1-7-5-7-5v-105c-4 2-10 2-15 0-13-2-21-13-18-22 1-9 14-15 26-12z" />
<glyph glyph-name="music" horiz-adv-x="1000" unicode="&#xeca3;" d="M815 784l-379-116c-46-13-83-60-83-106v-400s-27 19-88 10c-90-12-163-81-163-153s73-117 163-104c89 12 155 79 155 151v341c0 32 39 46 39 46l334 105s38 12 38-22v-274s-35 20-96 13c-89-11-162-79-162-151 0-72 73-118 162-107 90 11 163 78 163 150v558c0 46-37 72-83 59z" />
<glyph glyph-name="mute-volume" horiz-adv-x="1000" unicode="&#xeca4;" d="M209 531h-19c-28 0-50-23-50-51v-251c0-28 22-51 50-51h19c28 0 51 23 51 51v251c0 28-23 51-51 51z m471-58c-68 0-123-55-123-123 0-68 55-123 123-123 67 0 122 55 122 123 0 68-55 123-122 123z m56-171l-9-8c-3-4-9-4-12 0l-29 28c-4 4-9 4-13 0l-29-29c-3-3-9-3-13 1l-8 8c-3 4-3 9 0 13l29 29c3 3 3 9 0 12l-29 29c-3 3-3 9 0 13l8 8c4 4 10 4 13 0l29-28c4-4 9-4 13 0l29 28c3 4 9 4 12 0l9-8c3-4 3-10 0-13l-29-29c-4-3-4-9 0-12l29-29c3-4 3-9 0-13z m-57 230v227c0 28-17 37-39 20l-278-223c-22-18-40-54-40-83v-246c0-28 18-65 40-83l278-222c22-18 39-9 39 19v227c101 0 182 82 182 182 0 100-81 182-182 182z m0-346v0c-90 0-163 74-163 164 0 91 73 164 163 164 91 0 165-73 165-164s-74-164-165-164z" />
<glyph glyph-name="pause" horiz-adv-x="1000" unicode="&#xeca5;" d="M500 850c-276 0-500-224-500-500s224-500 500-500 500 224 500 500-224 500-500 500z m-78-654c0-31-25-56-56-56s-56 25-56 56v310c0 31 25 56 56 56s56-25 56-56v-310z m260 0c0-31-25-56-56-56s-56 25-56 56v310c0 31 25 56 56 56s56-25 56-56v-310z" />
<glyph glyph-name="play-alt-1" horiz-adv-x="1000" unicode="&#xeca6;" d="M0 350c-1-290 241-498 500-494 256-4 500 200 500 493 0 289-237 490-491 494-265 5-508-202-509-493z m407 228c114-69 226-138 340-208 19-12 19-41 0-53l-340-208c-20-13-47 2-47 26v417c0 24 27 39 47 26z" />
<glyph glyph-name="play-alt-2" horiz-adv-x="1000" unicode="&#xeca7;" d="M501 850c-278 0-501-224-501-503 3-276 224-497 501-497 137 0 256 50 353 147 97 97 146 216 146 353 1 275-224 500-499 500z m4-920c-230 0-417 186-417 415 0 231 186 418 417 417 231-1 416-186 415-418-1-230-186-413-415-414z m40 523c-49 30-98 59-147 89-4 3-7 3-6-4 0-1 0-2 0-4v-388c0-12 0-12 11-6 105 55 209 110 314 165 12 7 24 13 38 21-3 2-4 3-6 4-68 41-136 82-204 123z" />
<glyph glyph-name="play-alt-3" horiz-adv-x="1000" unicode="&#xeca8;" d="M126 203c-29 73-36 149-21 226 31 166 169 298 337 321 7 1 10 4 10 11-1 23-1 46-1 69 0 21 0 21-20 18-118-17-218-69-299-156-57-61-95-132-116-210-9-34-34-157 11-294 3-11 8-22 12-33 4-8 7-10 14-5 22 13 45 26 68 39 6 4 8 6 5 14z m851 296c-24 80-66 149-123 206-25 25-119 108-259 139-12 2-24 4-36 6-8 1-11-1-11-10 1-26 1-52 0-78 0-8 1-11 9-12 79-11 147-44 207-95 128-111 172-296 107-453-3-7-2-10 4-14 20-11 40-23 60-35 18-10 18-10 26 9 45 111 51 223 16 337z m-80-436c-23 13-46 26-68 40-6 4-10 4-14-2-49-62-112-106-187-131-159-55-342-1-445 134-5 6-8 7-14 3-20-11-40-23-60-34-18-10-18-10-6-27 73-94 168-155 284-183 81-19 161-17 240 4 34 9 153 48 250 154 8 9 15 19 23 28 5 7 5 10-3 14z m-713 290c0-183 152-314 316-312 161-2 315 126 315 311 0 183-150 309-310 312-167 3-321-127-321-311z m227 162c91-56 180-111 271-166-90-56-180-111-271-167v333z" />
<glyph glyph-name="play-pause" horiz-adv-x="1000" unicode="&#xeca9;" d="M498 850c-274-2-498-228-496-501 1-276 228-501 502-499 275 2 497 227 495 501-2 278-226 501-501 499z m-41-538c-60-35-120-70-180-103-36-20-57-6-58 36-1 33 0 66 0 99h0c0 35-1 70 0 105s24 50 55 33c62-35 124-70 184-107 31-19 30-45-1-63z m139-92c0-25-20-45-45-45s-45 20-45 45v249c0 25 20 46 45 46s45-21 45-46v-249z m176 0c0-25-20-45-45-45s-45 20-45 45v249c0 25 20 46 45 46s45-21 45-46l0-249z" />
<glyph glyph-name="play" horiz-adv-x="1000" unicode="&#xecaa;" d="M147-88c-8 6-13 13-13 23 1 277 1 553 1 829 0 9 1 16 9 21 8 5 15 2 23-3 228-138 457-275 686-413 18-11 18-26-1-38-228-137-456-275-684-413l-10-6h-11z m25 52c214 129 426 257 640 386-214 129-427 257-640 386v-772z" />
<glyph glyph-name="record" horiz-adv-x="1000" unicode="&#xecab;" d="M273 452c0 59-1 119 1 178 2 105 78 195 181 215 118 24 233-47 265-164 5-18 7-36 7-55 0-116 0-231 0-346 0-113-85-208-197-223-122-16-232 65-254 186-3 15-3 30-3 45v164c0 0 0 0 0 0z m227-69c52 0 103 0 154 0 7 0 11 1 10 9 0 78 1 157 0 235-1 104-101 180-202 155-74-17-126-83-126-162-1-75 0-151-1-226 0-9 3-11 11-11 52 0 103 0 154 0z m0-533c-32 0-64 0-96 0-15 0-26 8-30 21-4 12 0 25 10 33 6 5 14 7 22 7 16 0 33 0 49 0 6 0 8 1 8 7 0 10 0 20 0 30 1 6-3 8-8 9-143 20-257 131-279 273-4 21-5 43-4 65 0 7-2 11-7 15-13 9-19 21-19 37l0 65c0 26 20 46 45 46 26 0 47-19 47-45 1-22 1-45 1-67-1-16-7-28-20-37-3-2-6-5-6-10-3-106 38-191 124-253 139-99 339-49 417 103 25 47 35 97 33 150 0 5-2 7-5 10-13 9-20 22-20 39 0 21 0 43 0 64 0 27 20 46 46 46 26 0 46-20 46-46v-65c0-15-5-28-17-36-6-5-8-10-8-17 1-59-11-117-40-169-54-95-135-151-243-168-7-1-10-3-10-10 1-9 1-18 0-27 0-7 3-9 10-9 16 0 32 0 48 0 20 0 34-13 34-30 0-18-14-31-34-31-31 0-63 0-94 0z m108 797c0-25-19-43-44-43-25 0-44 19-44 44 0 25 19 44 44 44 25 0 44-19 44-45z m-216-142c0 25 19 44 44 45 24 0 45-20 45-45 0-24-20-44-44-44-25-1-45 19-45 44z m216 0c0-25-20-45-44-44-25 0-44 20-44 44 0 25 20 45 44 45 25-1 44-20 44-45z m-216 143c0 25 19 44 44 44s45-19 45-44c0-25-20-44-45-44-25 0-44 19-44 44z" />
<glyph glyph-name="retro-music-disk" horiz-adv-x="1000" unicode="&#xecac;" d="M500 322c18 0 27 10 29 28-1 17-11 28-28 28-18-1-28-11-28-29 0-17 11-26 27-27z m0 528c-276 0-500-224-500-500s224-500 500-500 500 224 500 500-224 500-500 500z m-233-359c22 44 56 77 102 98 6 3 14 3 19-4 5-9 2-17-6-21-39-24-68-58-96-93-4-5-9-8-15-6-6 3-6 9-6 16 0 2 0 6 2 10z m-90 18c-4-7-9-13-13-19-4-6-9-11-16-8-7 3-7 10-7 16-1 10 3 19 7 27 42 77 102 135 179 175 0 1 1 1 2 1 13 3 29 17 38 0 10-19-12-23-23-28-72-39-128-93-167-164z m325-18c79 0 141-63 140-142 0-79-62-141-142-140-80 0-141 63-140 142 0 79 63 141 142 140z m122-362c8 7 15 14 23 20 27 20 47 45 68 70 5 7 12 18 22 10 9-6 6-17 2-26-12-26-31-45-52-64-15-13-31-27-50-29-8 0-14 0-17 6-2 5 1 9 4 13z m16-124c7 6 15 12 23 17 68 38 121 90 160 158 4 7 9 15 14 22 4 5 9 9 16 6 7-2 7-9 8-14-1-12-5-22-10-31-39-71-94-126-165-166-11-7-24-12-38-12-5 0-11 1-13 8-2 5 1 9 5 12z" />
<glyph glyph-name="rewind" horiz-adv-x="1000" unicode="&#xecad;" d="M502-150c274 2 498 228 497 501-1 276-229 501-502 499-275-2-498-227-496-501 2-278 226-501 501-499z m-220 533c59 35 119 69 180 102 35 20 57 6 58-35 0-9 0-18 0-26 36 20 71 41 108 61 35 20 57 6 58-35 0-33 0-67 0-100h0c0-35 1-70 0-105-2-35-25-49-55-32-38 20-74 42-111 64 0-11 0-21-1-32-1-35-24-49-54-32-63 34-124 70-185 106-30 19-29 45 2 64z" />
<glyph glyph-name="song-notes" horiz-adv-x="1000" unicode="&#xecae;" d="M992 521l-7 8c-15 0-23-7-19-18 11-21 10-40-5-59-5-5-3-13 3-17 7-5 14-3 19 3 5 8 10 16 13 25 8 20 3 39-4 58z m-339-529c0 3 1 7 0 10-6 13-22 11-26 1-7-23-22-35-45-38-8-1-12-7-10-15 1-9 7-12 15-11 10 2 18 4 27 8 20 9 34 25 39 45z m-581 326c7 1 11 7 10 15-2 9-8 12-16 11-9-2-18-4-27-8-19-9-34-24-38-44-1-4-2-7 0-11 5-13 21-11 25 0 8 22 22 34 46 37z m594-341c-10-29-29-46-60-49-9-2-15-9-13-20 2-11 10-15 21-14 12 2 24 5 35 10 26 12 45 33 50 59 1 4 2 9 0 13-7 18-28 15-33 1z m-127 458c-12-5-15-2-18 8-5 19-11 38-16 56-3 7-2 13 3 19 40 50 46 106 25 166-20 57-79 100-135 98 1-5 1-9 3-13 18-69 37-137 57-206 2-10 1-16-6-24-46-51-85-106-102-174-16-70-4-131 51-181 42-38 93-54 149-55 28-1 28-1 35-30 4-18 6-36-1-54-7-18-23-28-44-27-16 1-29 7-35 23-1 6-5 13 8 13 17-2 28 9 30 24 2 18-5 29-23 34-21 6-42-5-50-27-16-40 7-83 51-97 45-15 86 7 98 52 7 28 3 55-5 82-3 10-3 15 8 19 36 14 63 39 81 73 33 60 33 120-5 178-32 47-102 66-159 43z m-23-85c10-34 18-65 27-97-34 13-46 56-27 97z m-84 396c-1 3-3 7 0 10 3 3 7 0 10-2 10-4 19-10 26-18 32-39 43-85 33-135-2-11-7-20-18-28-17 59-34 116-51 173z m-19-459c-13 76 13 140 66 198 7-25 13-47 19-70 2-7-4-10-8-14-50-59-32-147 35-177 9-3 18-6 27-9 1 0 2-2 3-4 3-12 6-25 10-38-68-9-140 43-152 114z m171-40c-12 0-15 18-17 25-4 10-3 15-1 28 3 13 8 24 24 25 16 0 23-9 27-22 1-4 2-9 2-11 1-14-3-25-12-34-6-6-15-12-23-11z m35-63c-17-8-18-14-26 11-1 4-2 7-3 11-2 9-2 11 7 14 29 11 46 33 50 63 4 25-4 47-27 61-23 13-45 9-67-8-2 6-4 11-5 16-9 30-7 33 23 42 44 14 93-12 110-59 19-54-9-126-62-151z m-360 381c-9 2-12-5-13-12-1-2-1-3-2-5-12-83-26-167-38-250-2-12-3-14-14-7-39 24-80 26-119 4-43-24-42-71 0-96 18-11 38-16 59-15 18-1 36 3 52 11 19 11 33 25 36 49 6 50 15 99 23 148 8 52 16 105 24 157 1 8 0 14-8 16z m639-22c-41 15-80 9-116-18-14 90-28 178-42 266-1 9-3 17-13 15-11-2-10-11-9-19 15-94 30-188 44-281 4-25 7-49 31-65 34-21 92-21 125 3 16 12 28 27 25 49-3 28-22 42-45 50z" />
<glyph glyph-name="sound-wave-alt" horiz-adv-x="1000" unicode="&#xecaf;" d="M439 82c-1 5-1 10-1 15 0 167 0 335 0 503 0 18 0 18 18 18 34 0 34 0 34-34 0-161 0-323 0-484 0-6 0-12-1-18h-50z m561 242c-14 0-27 0-41 0-8-1-11 3-11 11 2 50-8 39 39 41 4 0 9-1 13-1v-51z m-635 26c0 52 1 104 0 156 0 11 3 16 15 15 9-1 18 0 27 0 7 0 11-4 10-11 0-2 0-4 0-6v-309c0-17 0-17-16-17-8 0-15 1-22 0-11-1-14 4-14 14 1 53 0 105 0 158z m198-1c0-52 0-104 0-156 0-11-3-16-14-15-10 1-19 1-28 0-7 0-11 4-10 11 0 2 0 4 0 6v309c0 16 0 17 16 17 36 0 36 0 36-36 0-46 0-91 0-136z m-293-1c0-36 0-71 0-107 0-11-3-15-13-14-9 0-17 0-26 0-10-1-13 4-13 13 0 20 0 41 0 61 0 52 0 104 0 156 0 12 4 16 16 16 36-1 36 0 36-37 0-29 0-58 0-88z m365 0c0-28 0-56 1-84 0-10-3-14-13-13-9 0-18 0-27 0-10-1-13 4-13 13 0 45 0 90 0 135 0 12 0 25 0 38 0 8 3 11 11 11 10 0 19 0 29 0 10 1 13-3 13-13-1-29-1-58-1-87z m168 2c0 28 0 55 0 82 0 16 0 16 17 16 8 0 16 0 24 0 8 1 11-3 11-11 0-58 0-116 0-174 0-8-3-12-11-12-10 0-19 0-29 0-9-1-12 3-12 12 0 29 0 58 0 87z m-605 0c0-21-1-41 0-62 0-9-3-13-13-13-9 1-19 0-29 0-6 0-10 3-10 10 0 43 0 86 0 129 0 7 3 10 10 10 10 0 21 0 31 0 8 0 11-4 11-12-1-21 0-41 0-62z m147-1c0-21-1-41 0-62 0-8-3-12-12-12-10 1-19 1-28 0-10 0-13 4-12 13 0 41 0 82 0 123-1 9 2 14 12 13 9 0 18-1 27 0 10 1 13-4 13-14-1-20 0-41 0-61z m363 1c0-21 0-42 0-63 0-9-3-12-12-12-10 1-20 0-30 0-7 0-10 3-10 10 0 43 0 87 0 130 0 6 3 9 9 9 11 0 22 0 33 0 8 0 10-4 10-11 0-21 0-42 0-63z m168 0c0 16 0 33 0 50 0 9 3 12 11 12 10 0 20 0 30 0 7 0 11-2 11-10 0-35 0-70 0-105 0-7-4-10-11-10-10 0-20 1-30 0-8 0-11 4-11 12 0 17 0 34 0 51z m-751-1c0-13 0-26 0-39 0-8-3-11-10-11-11 1-21 1-32 0-7 0-10 3-10 10 0 27 0 54 0 81 0 7 3 10 9 10 11 0 22 0 33 0 7 0 10-4 10-11 0-13 0-26 0-40z m657 1c0-13 0-25 1-38 0-9-3-13-12-13-10 1-20 1-30 0-8 0-10 4-10 11 0 26 0 53 0 79 0 8 3 11 11 11 10 0 20 0 30 0 7 0 11-4 11-11-1-13-1-26-1-39z m-730-1c0-28 4-25-26-25-29 0-26-3-26 25 0 30-3 26 27 26 29 1 25 3 25-26z" />
<glyph glyph-name="sound-wave" horiz-adv-x="1000" unicode="&#xecb0;" d="M892 315c-17 0-29 6-37 21-9 15-15 31-22 47-6 12-12 24-21 34-25 26-60 23-79-7-15-23-20-49-26-74-5-23-10-46-19-67-2-4-4-9-9-9-6 0-6 6-7 10-10 35-14 72-18 108-8 58-11 117-32 173-4 12-10 24-19 34-20 28-42 23-56 15l0 0c-1 0-2-1-3-1-2-2-4-3-6-4 0-1-1-1-1-1-1-1-1-1-1-1-1-1-2-2-2-2l0 0c-3-3-6-6-8-9l0 0c-5-7-10-15-13-24-6-15-11-30-14-46-17-79-18-160-27-240-3-34-7-68-15-101-1-4-1-9-7-9-4 0-5 5-6 8-7 17-12 35-15 53-11 49-17 100-30 148-6 23-12 45-27 64-20 25-52 25-73 1-7-7-12-16-16-25-16-38-21-79-29-118-4-23-8-46-16-68-1-4-2-7-7-7-5-1-6 3-7 6-3 8-6 15-9 23-9 27-17 55-33 79-17 24-40 36-70 36-32 0-65 0-98 0-5 0-9 1-14-2v-48c5-2 9-2 14-2 31 0 62 0 93 1 17 0 28-8 36-22 10-18 15-37 22-56 6-18 12-35 23-50 24-35 67-33 88 3 18 29 23 61 29 94 6 31 10 62 19 93 1 4 3 8 4 11 2 4 3 8 7 7 4 0 5-4 6-7 7-18 11-37 15-57 10-51 17-103 32-153 3-10 6-20 10-30 10-23 24-43 50-50h10c22 6 33 22 41 42 15 37 19 77 24 117 8 74 10 149 22 223 3 19 7 38 13 56 1 4 2 10 7 10 7 1 7-6 9-10 11-28 15-57 20-87 8-57 10-116 24-173 3-16 8-31 16-45 20-39 59-31 79-12 17 17 26 38 32 61 9 28 15 57 23 85 1 5 1 12 8 12 6 1 7-7 9-11 8-19 16-38 27-55 18-29 43-45 78-44 37 2 73 1 110 1v50c-36 1-72 2-108 1z" />
<glyph glyph-name="stop" horiz-adv-x="1000" unicode="&#xecb1;" d="M510 850c-286 5-511-226-510-500-1-271 218-497 494-500 280-3 506 223 506 500 0 273-219 495-490 500z m141-727h-302c-42 0-76 34-76 76v302c0 42 34 76 76 76h302c42 0 76-34 76-76v-302c0-42-34-76-76-76z" />
<glyph glyph-name="video-alt" horiz-adv-x="1000" unicode="&#xecb2;" d="M0 826v-952c0-13 11-24 25-24l951 1c13 0 24 11 24 24v951c0 13-11 24-24 24h-951c-14 0-25-11-25-24z m673-19h52c14 0 25-11 25-25v-90c0-13-11-24-25-24h-52c-14 0-25 11-25 24v90c0 14 11 25 25 25z m-199 0h54c13 0 24-11 24-24v-92c0-13-11-24-24-24h-54c-13 0-24 11-24 24v92c0 13 11 24 24 24z m-197 0h54c14 0 25-11 25-25v-90c0-14-11-25-25-25h-54c-14 0-25 11-25 25v90c0 14 11 25 25 25z m-209 0h65c14 0 25-11 25-24v-90c0-14-11-25-25-25h-65c-13 0-24 11-24 25v90c0 13 11 24 24 24z m-1-183h865c13 0 24-11 24-24v-499c0-13-11-24-24-24h-865c-13 0-24 11-24 24v499c0 13 11 24 24 24z m66-731h-65c-13 0-24 11-24 25v90c0 14 11 25 24 25h65c14 0 25-11 25-25v-90c0-14-11-25-25-25z m198 0h-54c-14 0-25 11-25 25v90c0 14 11 25 25 25h54c14 0 25-11 25-25v-90c0-14-11-25-25-25z m197 0h-54c-14 0-24 11-24 24v91c0 14 11 25 24 25h54c13 0 24-11 24-25v-91c0-13-11-24-24-24z m197 0h-52c-13 0-24 11-24 25v90c0 14 11 25 24 25h52c14 0 25-11 25-25v-90c0-14-11-25-25-25z m207-1h-61c-14 0-25 11-25 25v91c0 14 11 25 25 25h61c13 0 24-11 24-25v-91c0-14-11-25-24-25z m0 776h-61c-13 0-24 11-24 24v91c0 14 11 25 24 25h61c14 0 25-11 25-25v-91c0-13-11-24-25-24z m-274-313c-75 40-147 78-219 116-12 6-26-2-26-15v-234c0-13 14-21 26-15 73 39 145 77 219 117 13 6 13 24 0 31z" />
<glyph glyph-name="video-cam" horiz-adv-x="1000" unicode="&#xecb3;" d="M261 399c138 0 277 0 415 0 13 0 13 1 11 13-7 31-32 50-66 50-63 0-127 0-190 0-121 0-242 0-363 0-24 0-43-8-57-27-5-7-11-14-11-22v-458l0-11c0 0 0-1 0-1 10-29 34-44 65-44 187 0 374 0 561 0 34 0 62 27 62 61 0 122-1 245 0 367 0 8-3 10-11 10-109 0-219 0-328 0-30 0-60 0-90 0-7 0-9 2-9 9 0 14 1 28 0 42-1 9 2 11 11 11z m215-157c67 0 123-55 125-119 3-72-55-128-120-131-72-2-127 56-129 120-3 69 52 130 124 130z m-289-217c-34 0-61 28-61 62 0 34 28 62 62 62s62-29 62-63c-1-34-29-62-63-61z m764 463c-1-1-1-1-2-2-50-37-100-73-149-112-32-25-49-59-50-100 0-61 0-122 0-183 0-44 19-81 54-108 47-36 95-72 143-107 5-4 11-8 18-11 15-5 27-2 33 13 1 1 2 4 2 7v590c0 23-26 29-49 13z m-445 36c82 2 154 73 151 163-3 81-73 150-157 150-91 0-160-77-156-163 3-81 72-153 162-150z m-377 0c66 2 123 58 121 130-2 64-59 119-125 119-73 0-128-61-125-130 3-64 58-122 129-119z" />
<glyph glyph-name="video-clapper" horiz-adv-x="1000" unicode="&#xecb4;" d="M866 518h-485c-7 0-13 0-13 0s6 3 12 5c163 44 325 88 487 132 7 1 11 9 10 16-10 35-20 70-29 105-2 7-6 12-9 12-2-1-3-1-5-2-92-25-184-50-276-75-143-38-286-77-430-116-6-1-8-4-8-10 0-43 0-85 0-128v-60c0-158 0-314 0-471 0-8 6-13 13-13h734c7 0 13 5 13 13v457c0 8 0 13 0 13s-1 6-1 13v95c0 8-5 14-13 14z m-136-28h82c7 0 13-5 13-13v-55c0-7-6-13-13-13h-109c-7 0-11 6-9 13 7 19 13 37 19 56 2 7 10 12 17 12z m-201-1c6 5 19 1 28 1h65c7 0 13-1 12-3 0-1 0-2 0-3-8-23-16-46-23-69-2-4-3-6-8-6-33 0-66 0-99 0-1 0-1 0-2 0-1 1 0 6 2 13 5 14 9 27 14 41 3 9 5 21 11 26z m-87-11l-19-56c-2-7-10-13-17-13h-82c-8 0-12 6-9 13 3 9 6 18 9 27 4 12 7 24 12 36 1 2 4 5 6 5 30 1 60 1 91 1 7 0 11-6 9-13z m360 258l15-53c2-7-2-14-9-16-14-4-27-8-40-11-16-4-31-9-46-12-3-1-7 0-8 2-13 18-25 37-38 56-4 6-2 13 5 14l106 29c7 2 14-2 15-9z m-219-46c3 0 8-1 9-3 13-18 25-37 38-56 4-6 2-12-5-14-27-7-53-14-80-22-7-1-15 2-19 8-11 16-22 33-33 49-4 6-2 13 5 15 13 3 26 7 39 10 15 4 31 9 46 13z m-174-52c12-18 25-37 38-57 4-5 1-12-6-14-16-4-31-8-47-13-13-3-26-7-39-10-2-1-7 0-8 2-14 22-29 43-43 65 0 0 0 1 0 1-1 1 5 3 12 5 29 8 57 16 86 23 2 1 6 0 7-2z m-193-93c22 0 41-19 40-42 0-21-19-40-41-40-22 1-40 20-40 41 0 23 18 41 41 41z" />
<glyph glyph-name="video" horiz-adv-x="1000" unicode="&#xecb5;" d="M915 366c-11 0-22 0-32 0-3 0-6-2-9-4-41-24-81-48-122-72v129c0 14-2 26-17 31-6 2-12 3-18 3h-121c57 25 97 82 97 149 0 89-73 162-162 162s-163-73-163-162c0-67 40-124 98-149h-202c33 18 55 52 55 92 0 59-47 107-106 107-59 0-106-48-106-107 0-40 22-74 55-92h-64c-26 0-35-9-35-36v-445c0-28 8-36 36-36h616c5 0 10 0 14 1 13 1 20 9 22 21 1 5 1 10 1 15v126c41-24 82-49 122-73 3-2 6-4 9-4 10 0 21 0 32 0 12 0 23 10 23 23v298c0 13-11 23-23 23z" />
<glyph glyph-name="volume-bar" horiz-adv-x="1000" unicode="&#xecb6;" d="M489 424c0 64 0 129 0 193 0 26-15 35-37 22-81-44-160-89-241-133-7-4-9-8-9-17 0-46 0-92 0-138h0c0-48 0-95 0-143 0-4 0-8 5-10 82-44 164-89 247-132 20-11 35-1 35 22 0 63 0 126 0 188 0 7 2 12 6 17 28 32 28 79 1 112-5 6-7 12-7 19z m473 113c-30 73-75 134-135 185-4 4-7 5-11 1-18-19-36-37-55-55-4-4-3-6 1-9 11-9 22-19 32-29 93-97 130-213 110-345-15-98-63-179-140-243-5-4-5-6 0-11 18-17 36-35 53-53 5-5 8-4 12 0 21 18 40 37 58 59 74 90 112 194 113 313 0 64-12 127-38 187z m-122-126c-16 82-56 150-120 204-5 4-8 4-13-1-16-17-33-34-50-51-6-5-7-8 0-14 80-66 111-150 92-252-11-60-42-109-91-147-6-5-6-7 0-13 16-16 32-31 48-48 7-8 12-8 20-1 78 70 117 157 119 261 0 21-2 41-5 62z m-688 82c-36 0-72 0-109 0-26 0-43-17-43-44 0-67 0-133 0-199 0-25 18-43 42-43 37 0 74 0 110 0 7 0 9 2 9 9 0 45 0 89 0 133 0 45 0 90 0 135 0 7-2 9-9 9z m457 11c-4 2-6 6-12 0-18-19-37-37-56-56-4-4-3-6 2-9 71-42 68-139 2-179-6-3-5-5-1-9 18-18 36-35 53-54 6-5 9-5 15 0 47 39 72 89 74 153-1 62-27 114-77 154z" />
<glyph glyph-name="volume-down" horiz-adv-x="1000" unicode="&#xecb7;" d="M580 350v415c0 4 1 7 0 10-1 11-7 15-16 11-7-3-13-8-18-13-93-81-186-163-278-244-12-10-24-15-39-15-46 0-93 0-139 0-17 0-21-4-21-20v-287c0-17 4-21 21-21 46 0 93 0 140 0 13 0 24-2 34-11 94-83 187-165 281-247 6-5 13-10 20-14 8-4 13 1 15 8 1 5 0 9 0 13v415h0z m155 325c-20-22-41-44-61-66-9-9-9-24 0-34 62-63 111-132 116-223 6-92-35-166-89-235-8-11-7-26 3-34 23-20 46-40 68-59 10-9 25-8 34 2 190 230 151 472-37 650-10 9-25 8-34-1z" />
<glyph glyph-name="volume-mute" horiz-adv-x="1000" unicode="&#xecb8;" d="M315 293v-15l159 300c-49-27-98-54-147-81-9-6-13-11-13-22 1-61 0-122 1-182z m378 96c0 84 0 169 0 253l0 2-312-585c88-47 176-95 265-142 26-14 47-1 47 30 0 82 0 165 0 248 0 8 2 15 7 21 37 43 37 105 1 148-6 8-9 15-8 25z m-432-211c0 38 0 75 0 113 0 59 0 118 0 177 0 9-2 12-12 11-47 0-95 1-143 0-35 0-57-22-57-58 0-87 0-174 0-261 0-32 23-56 55-56l117-1 40 75z m589 315c-4 4-8 8-15 1-24-25-49-49-74-74-5-5-4-7 2-11 94-55 90-184 3-236-7-4-6-7-1-12 24-23 47-47 70-71 7-7 12-7 19-1 63 52 95 118 97 202-1 82-34 150-101 202z m-134 346l-10 5c-22 12-50 4-62-18l-496-903c-12-22-4-49 18-62l11-5c22-12 50-4 62 18l495 903c13 22 4 49-18 62z" />
<glyph glyph-name="volume-off" horiz-adv-x="1000" unicode="&#xecb9;" d="M755 350v415c0 4 1 7 0 10-1 11-7 15-16 11-7-3-13-8-18-13-93-81-186-163-278-244-12-10-24-15-39-15-46 0-93 0-139 0-17 0-21-4-21-20v-287c0-17 4-21 21-21 46 0 93 0 140 0 13 0 24-2 34-11 94-83 187-165 281-247 6-5 13-10 20-14 8-4 13 1 15 8 1 5 0 9 0 13v415h0z" />
<glyph glyph-name="volume-up" horiz-adv-x="1000" unicode="&#xecba;" d="M407 351v280c0 2 0 5 0 7-1 7-5 10-11 7-5-2-9-5-12-8-63-55-125-110-188-165-7-7-16-10-26-10-31 0-62 0-93 0-12 0-14-3-14-14v-193c0-11 2-14 13-14h95c9 0 16-2 23-8 63-55 126-110 189-166 4-3 9-6 14-9 5-3 8 0 10 5 0 3 0 6 0 9 0 93 0 186 0 279z m429 308c-17 25-35 50-54 75-5 7-15 8-21 2-17-14-33-27-49-40-6-6-10-13-8-15 1-1 2-3 3-4 44-54 81-112 106-176 25-66 36-133 27-203-9-73-37-139-79-199-16-23-33-45-51-67-5-7-5-18 2-24 14-13 29-27 44-41 6-6 13-9 16-6 1 1 2 3 4 4 45 51 83 105 112 167 49 103 62 210 37 322-16 74-48 142-89 205z m-205-7c-15-14-30-28-45-41-6-6-11-12-10-13 0-1 1-1 1-2l8-8c31-35 57-72 77-114 26-56 37-115 27-177-10-59-36-111-70-159-6-9-13-17-19-25-5-7-4-17 2-23 16-13 31-26 46-39 7-6 17-5 23 1 158 187 153 414-17 599-6 6-17 7-23 1z m-120-82c-14-14-27-29-41-44-6-6-6-16 0-23 42-42 75-89 79-151 3-61-24-111-61-158-5-7-5-17 2-23 16-13 31-26 46-39 7-6 17-6 23 1 128 155 102 318-25 438-7 6-17 6-23-1z" />
<glyph glyph-name="youtube-play" horiz-adv-x="1000" unicode="&#xecbb;" d="M1000 421h-2c0 10 0 19 0 29 0 10-1 19-2 29 0 12-2 24-3 36s-1 24-3 35c-4 18-9 35-14 52-4 15-11 30-22 42-23 27-53 41-88 45-19 2-38 3-56 4-17 1-34 2-52 3-25 1-51 2-77 2-25 1-51 2-76 2-49 0-99 1-149 0-50 0-100-1-150-2-22-1-43-1-64-2-7 0-13-1-20-1-22-1-44-2-66-4-15-1-30-3-44-6-32-8-57-25-74-53-13-20-20-42-24-66-4-19-6-38-8-57-2-19-3-39-4-58-1-16-2-32-2-48 0-45 0-90 1-135 0-12 1-23 2-34 1-16 2-32 4-48 1-12 1-24 3-36 3-20 9-40 16-59 13-36 39-59 74-71 23-8 47-10 70-12 19-2 38-2 57-3 16-1 32-2 48-2 24-1 49-1 74-2 23 0 46-1 68-1 41 0 81-1 121-1 50 1 101 2 151 3 21 1 42 1 62 2 7 0 14 0 21 1 22 1 45 2 68 4 14 1 28 2 42 5 44 10 76 35 92 78 11 29 17 59 19 90 2 17 3 35 4 52 1 23 2 45 3 68 0 39 0 79 0 119z m-603-201v281c90-47 179-94 270-141-90-47-180-93-270-140z" />
<glyph glyph-name="boy" horiz-adv-x="1000" unicode="&#xeceb;" d="M86 18c12 46 46 73 82 97 52 36 110 60 170 79 5 2 9-1 13-4 32-24 67-41 106-49 58-11 112 0 162 29 11 7 22 13 32 21 3 3 7 4 11 3 67-22 132-49 188-92 22-16 42-35 55-60 4-8 5-16 9-24 0-54-1-108 0-162 0-5-1-6-6-6-272 0-544 0-816 0-5 0-6 1-6 6 0 54 0 108 0 162z m612 135c-7 2-12 4-17 6-13 7-23 5-36-4-58-37-120-53-189-41-40 7-76 23-109 46-3 2-6 6-11 5-11-4-23-8-36-12 62-46 127-73 202-72 73 1 137 27 196 72z m-323 660c-6-10-7-22-5-33 1-7 4-7 9-3 43 46 100 62 159 73 1 0 2 0 4 0-14-13-26-25-33-44 77 23 150 14 221-22-10-3-20-3-29-7-8-4-17-9-24-17 50-14 96-33 132-74-20-1-36-2-54-9 17-12 33-23 48-36 6-5 6-9 1-15-14-20-30-39-52-52-4-3-5-6-5-11-2-20-5-41-9-62-1-3-2-7 2-10 25-17 28-43 24-70-7-35-24-63-55-81-5-3-6-8-8-12-25-67-71-114-138-139-57-20-111-13-163 17-49 29-84 70-103 125-2 5-5 8-10 11-37 20-62 80-50 120 4 11 9 21 19 27 7 4 7 9 6 16-8 46-10 92-3 137 6 46 18 90 48 127 18 22 45 40 68 44z m122-608c8 0 15 0 22 1 79 16 131 63 158 138 4 9 5 19 18 20 3 0 6 3 9 5 18 16 31 36 34 60 2 22-1 40-28 45-6 1-5 5-4 9 1 20 3 40 1 61-1 4-1 8-7 6-31-10-64-14-97-16-42-2-84 2-123 17-38 15-71 37-104 59-20 14-23 14-42-3-3-2-5-4-7-6-29-34-35-75-33-118 0-6-1-8-7-9-19-5-26-15-27-35-1-21 8-38 20-55 8-11 17-21 32-23 5-1 5-5 6-8 6-25 17-47 33-67 37-48 85-78 146-81z m3 85c-19 1-36 3-52 10-4 2-7 4-4 8 3 4 1 13 11 10 30-11 60-11 91 0 9 3 7-7 10-11 4-4 0-6-3-7-18-7-36-9-53-10z" />
<glyph glyph-name="business-man-alt-1" horiz-adv-x="1000" unicode="&#xecec;" d="M908 47c-2 41-13 76-52 96-11 6-23 12-34 16-45 19-90 36-135 54-22 9-23 8-29-14l-85-320c-2-6-2-12-7-18-1 5-2 9-3 12-6 54-13 107-18 160-5 46-18 92 1 138 4 7-2 8-8 8-23 0-47-1-70 0-13 0-18-2-13-15 9-25 12-51 7-77-4-21-6-43-9-65-6-53-13-107-19-160h-3c-1 3-2 5-3 7-29 109-58 219-87 328-7 23-9 25-32 16-44-18-88-35-132-53-20-8-38-18-55-32-16-14-26-31-28-53-6-58-12-116-17-174-3-35 13-51 47-51 99 0 198 0 297 0 152 0 305 0 457 0 31 0 48 19 45 48-6 49-12 99-15 149z m-623 394c6-10 13-19 24-22 4 0 4-3 5-5 8-30 21-58 40-83 28-37 63-65 109-76 8-2 16-3 23-4h28c9 2 19 3 28 5 36 10 66 31 91 59 26 28 43 61 53 98 1 4 3 6 7 7 13 5 21 16 25 29 5 14 12 28 15 43v17c-1 6-3 12-5 18-3 9-8 17-17 22-2 1-2 3-1 5 16 35 13 72 9 109-3 25-9 50-17 74-6 21-19 38-35 52-25 20-54 35-85 43-15 4-29 1-42-7-4-3-8-6-12-9-5 21-23 25-39 29-9 2-19 3-28 5h-28c-5-2-11-2-16-3-16-3-30-10-43-21-32-27-58-59-75-98-12-29-16-60-20-91-3-28 1-55 10-81 1-4 1-6-3-8-11-8-16-20-18-33-4-18 0-34 7-50 4-7 5-16 10-24z m6 86c4 7 6 7 9 0 6-11 16-18 26-25-6 54 2 106 6 158 6-8 11-17 19-26-4 16-8 31-6 47 5-8 7-15 14-22-2 8-3 15-2 22 2 23 15 37 36 45 21 7 42 9 63 2 28-9 54-7 81 2 12 4 24 7 36 5 21-4 35-17 44-35 6-10 9-21 16-30 5-9 12-15 21-19 10-4 11-6 11-17-1-5-1-10-2-15-2-11-1-22 5-32 4-9 7-17 12-25 4-8 5-17 4-25-1-12-2-24-2-38 7 11 12 21 17 31 2 4 4 4 7 1 4-5 6-11 8-17 2-14 1-28-6-41-3-6-5-12-7-19-2-4-4-8-7-12-4-4-9-7-15-5-4 1-5-2-6-5-7-28-17-54-33-78-27-43-64-73-115-83-39-7-75 2-108 24-45 31-71 74-86 125-1 2-1 4-2 6-1 3-1 7-3 10-2 3-6 0-9 0-6 1-11 4-13 9-8 17-17 34-19 53-1 11 1 21 6 29z" />
<glyph glyph-name="business-man-alt-2" horiz-adv-x="1000" unicode="&#xeced;" d="M914 50c-3 42-14 77-53 97-11 6-23 12-34 16-46 19-92 37-137 55-22 9-23 8-29-15-29-108-58-216-87-324-1-6-2-12-7-18-1 5-2 9-2 12-7 55-14 109-19 163-5 46-19 93 1 139 4 8-2 8-8 8-24 0-48-1-72 0-12 1-17-2-12-15 9-25 12-51 7-78-5-22-6-44-9-66-7-54-13-108-20-162h-3c-1 3-2 5-3 7-29 111-58 222-88 332-6 24-9 25-32 16-44-18-89-35-134-53-20-8-39-19-55-33-16-14-27-31-29-53-6-59-12-118-17-177-3-35 12-51 48-51 100 0 200 0 300 0 154 0 309 0 464 0 30 0 48 19 45 48-6 50-12 101-15 152z m-593 373c2-1 3-3 3-5 9-30 22-58 39-84 35-50 82-78 145-78 31 1 59 13 85 30 30 21 50 51 66 83 7 16 14 32 19 49 0 2 0 4 3 5 13 4 21 13 25 26 5 13 13 26 15 41 2 19-1 37-15 52-2 2-2 3-2 5 3 42 6 84 3 125-1 24-5 46-17 67-7 12-18 22-28 32-13 13-27 26-44 36-2 2-2 4-2 7 2 7 2 7-6 7-6 0-12 1-19 1-4 0-5 1-3 5 1 3 1 6 2 10-9-2-16-5-25-7 2 7 5 13 7 20h-1c-13-7-25-12-39-16-8-2-18 0-27 0-38-2-73-13-106-33-8-5-16-11-24-18-9-7-21-10-31-15-8-4-6-4-2-9 4-7 5-7-3-10-8-3-16-6-24-10 3-3 7-5 11-7 6-4 6-4 1-8-6-5-13-10-19-15-1-1-2-1-2-3 4-1 8 1 12 1 4 1 4 0 4-4-5-14-8-29-10-45-6-33-8-66-9-100 0-1 0-2 0-3 2-5 0-8-4-10-12-7-16-19-18-32 0-2 0-3-1-4v-18c2-14 9-26 13-39 5-14 13-25 28-29z m-19 100c1 2 2 4 5 5 2-10 4-20 5-30 0-7 3-10 10-12 11-2 11-2 10 8-1 15 1 30 1 45 1 13 1 27 1 41-1 38 6 75 15 111 2 10 8 17 15 21-3-7-5-15-6-23 6 5 10 10 13 15 6 7 13 10 21 11 14 1 29-1 42 3 8 2 15 3 22 7 13 7 27 4 41 6 4 0 3-3 3-5 1-8-2-15-6-22-3-7-7-13-11-19 21 8 40 19 55 36 5-7 5-14 3-22-2-7-6-13-10-21 11 3 21 8 30 13 13 8 24 17 35 28 2 2 4 2 6-1 5-8 8-16 7-26 0-1-1-4 2-5 2-1 3 1 5 3 5 6 10 13 14 20 1 1 1 2 2 3 4-11 8-22 2-34 0-1-2-2-1-4 1-1 3-1 5-1 4 1 9 3 13 4 2 1 4 2 6 3 3-11-3-20-24-37 13-1 25 1 36 10-2-14-3-26-3-38-1-8-1-15 1-23 8-32 9-64 6-96l0-4c-2-11-2-11 10-11 9 1 9 1 11 10 2 9 4 18 7 28 3-9 4-17 3-25 0-3-1-6-2-9-4-11-8-23-12-33-4-9-10-16-21-14-4 1-4-2-4-4-7-27-17-52-30-75-22-40-54-68-98-82-36-10-69-4-102 13-29 15-50 38-66 66-14 25-25 51-31 78-1 3-1 5-5 4-9-2-16 3-19 10-6 14-13 28-16 44-2 10-1 20 4 30z" />
<glyph glyph-name="business-man-alt-3" horiz-adv-x="1000" unicode="&#xecee;" d="M293 466c2-16 9-31 16-45 4-10 11-17 21-19 4-1 4-4 4-7 4-20 10-39 21-56 14-24 33-44 56-59 17-12 33-24 52-31 8-3 16-4 24-7h28c7 3 15 3 23 6 19 6 36 19 52 30 25 17 46 37 61 63 8 14 13 29 14 45 1 2 1 4 1 6 0 6 3 9 9 12 12 5 17 17 21 29 4 11 10 22 12 34v16c-1 6-2 11-4 16-3 9-8 16-17 21-3 1-2 3-3 6 0 15 3 30 4 45 5 40-1 78-18 115-4 10-10 19-11 29 0 3-2 4-5 5-7 0-11 5-14 11-1 3-2 5 1 7 3 2 1 3-1 4-7 2-13 2-19 1-4-1-5 0-5 3-1 6-3 11-5 17-1 2-2 3-6 3-11-3-21-2-32 2-6 3-9 8-11 14-4 11-11 19-23 20-3 0-4 2-3 5 0 6 0 13 0 20-7-3-11-7-16-9-8-2-10-1-10 7-1 9 2 17 6 25-17-2-27-10-33-25-4 9 1 15 4 23-15-5-26-14-36-26-6-7-11-14-16-21-2-2-2-4-5-4-2 0-2 3-3 5-1 2-1 4-2 7-5-2-7-6-9-10-5-8-8-16-12-25-5-10-9-10-18-4 0 1-1 1-1 2-7 6-7 6-13-1-11-12-19-27-27-42-4-8-9-15-16-22-6-5-12-11-18-16 3-3 6-2 9-2 6-1 7-3 5-8-5-11-11-22-16-32-1-2-2-4-3-6 3 0 4 2 6 2 2 0 4 1 5 0 1-2 0-3 0-5-6-14-11-28-16-42 1-1 2 0 3 0 8 3 8 3 8-5-2-24-2-47-1-70 1-2 0-4-1-5-17-14-20-32-17-52z m21 32l1 0c2-8 3-16 5-24 1-6 10-11 15-9 3 1 2 3 1 5-1 14-1 27-1 40-1 20 3 40 7 59 6 27 11 54 19 80 3 6 5 13 8 19 7 16 20 22 36 23 16 1 32-1 47-5 20-5 39-4 59 2 16 5 32 7 49 7 19 0 32-8 42-22 12-16 19-34 26-52 5-14 10-29 18-42 1-2 1-4 3-5 11-12 12-26 13-41 1-18 1-37 0-56 0-3-1-6 4-6 4 1 9-2 10 5 0 8 1 15 2 23 1 2 0 4 2 5 2 0 3-2 4-3 7-10 9-21 7-31-2-16-9-29-16-43-3-7-8-12-17-10-4 1-4-2-4-3-2-8-4-16-4-24-2-22-11-40-24-57-24-30-55-53-90-68-29-12-59-10-87 8-18 12-36 24-52 39-26 24-42 54-48 89 0 2-1 5-1 8-1 5-2 10-10 8-5-1-10 2-12 6-8 18-18 35-18 55 0 7 2 14 6 20z m585-455c-2 40-13 74-51 94-11 5-22 11-33 16-44 18-88 35-132 52-21 9-23 8-28-14-28-104-56-209-84-313-1-5-2-11-6-17-2 5-3 8-3 12-6 52-13 104-18 156-5 45-18 90 1 135 4 7-2 8-8 8-23 0-46-1-69 0-12 0-16-2-12-15 9-24 12-49 7-75-5-21-6-43-9-64-6-52-12-104-19-156h-3c-1 2-2 4-2 7-29 106-57 213-86 320-6 23-8 24-31 15-43-17-86-34-129-51-19-8-38-18-54-32-15-14-26-30-27-51-6-57-12-114-17-171-3-34 12-49 46-49 97 0 194 0 290 0 150 0 299 0 448 0 30 0 47 19 44 46-6 49-12 98-15 147z" />
<glyph glyph-name="business-man" horiz-adv-x="1000" unicode="&#xecef;" d="M926-99c-5 58-12 117-17 175-2 22-13 39-29 53-16 14-35 25-55 33-44 18-89 35-133 53-23 9-26 7-32-16-29-110-58-220-88-330 0-2-1-5-2-7h-3l-20 161c-3 22-4 44-9 65-5 27-2 53 7 78 5 13 0 15-12 15-11 0-22 0-33 0-11 0-22 0-32 0-13 0-18-2-13-15 9-25 12-51 7-78-4-21-6-43-9-65l-20-161h-3c0 2-1 5-2 7-29 110-59 220-88 330-6 23-9 25-32 16-44-18-88-35-133-53-20-8-39-19-55-33-16-14-27-31-29-53-5-58-12-117-17-175-3-35 13-51 48-51 99 0 199 0 298 0h160c99 0 199 0 298 0 35 0 51 16 48 51z m-613 504c20-40 43-78 77-108 41-36 88-50 143-40 36 7 65 27 90 53 34 35 56 77 76 120 2 4 3 8 6 10 15 14 23 31 29 50 5 18 7 36 1 55-4 9-9 17-20 17-6 1-6 3-5 8 4 28 7 56 6 84 0 34-5 68-23 98-30 52-78 79-135 92-11 3-23 4-34 6h-48c-3-2-6-2-8-2-36-4-69-14-100-33-42-26-70-63-79-112-6-29-6-59-4-89 1-15 3-30 5-45 0-2 2-6-2-6-20-2-25-17-26-32-3-30 5-57 23-80 12-14 19-30 28-46z m-22 123c0 4 2 8 4 12 6 11 16 12 24 1 3-4 6-10 9-15 2-5 4-11 8-16-3 15-6 30-9 45-4 24-7 47-6 71 0 7 1 13 4 18 15 28 34 52 65 63 12 5 21 4 30-6 47-47 105-71 170-82 26-4 53-7 80-7 8-1 10-3 9-11-3-28-8-56-14-83l-1-7c6 10 10 21 17 30 8 12 18 11 25-2 1-4 3-7 3-11 0-25-6-48-25-67-5-4-8-9-11-15-11-26-23-52-38-77-4-8-10-16-15-24-55-82-186-84-243 4-20 31-36 64-51 97-2 6-5 11-9 15-20 18-26 41-26 67z" />
<glyph glyph-name="female" horiz-adv-x="1000" unicode="&#xecf0;" d="M712 334c-1 8-3 16-5 24-12 64-26 128-38 192-7 39-45 73-84 73-56 1-112 1-168 0-5 0-11 0-16-1-41-12-64-39-72-82-12-68-27-135-40-203-5-23 7-43 27-47 21-4 39 8 44 31l38 185c1 4 3 7 4 11l4-2c0-4 1-8 0-12-5-25-10-51-15-76-17-82-33-164-50-245-3-15 1-19 16-19h49v-14c0-63 0-127 0-191 0-28 18-45 45-45 20 0 41 18 41 45-1 64-1 128-1 192v12h17v-13c0-64 0-129 0-193 0-23 14-40 35-43 31-4 51 14 51 46 0 63 0 127 0 190v14h48c18 0 21 3 18 22-18 88-36 176-54 264-4 20-8 39-12 59 0 2 2 5 3 8 2-2 3-4 5-6 0-1 0-3 1-5 12-62 25-124 38-186 4-21 23-34 42-30 21 4 33 24 29 45z m-211 300c41 1 75 35 74 77 0 43-33 76-75 77-42 0-75-34-75-77 0-42 34-77 76-77z" />
<glyph glyph-name="funky-man" horiz-adv-x="1000" unicode="&#xecf1;" d="M915 18c-3 8-4 17-8 25-13 25-33 43-55 60-57 43-121 70-189 92-4 1-8 0-11-3-11-7-21-15-33-21-52-30-107-41-166-28-37 8-71 25-101 48-6 5-11 5-18 3-45-15-89-33-130-56-35-19-67-41-93-71-17-19-26-40-26-66 1-51 0-101 0-151h169c218 0 435 0 653 0 8 0 9 2 9 9-1 53-1 106-1 159z m-793-140c-6-1-9 1-9 8 0 41-1 82 0 123 0 16 7 29 20 42v-125c0-14-1-27 0-40 0-10-6-8-11-8z m53-1c-16 1-14-2-14 14 0 58 0 116-1 174l11 20c3 2 7 5 13 9v-52c0-52-1-104 0-156 0-7-3-9-9-9z m50 2c-6 0-15-4-15 9 1 62 1 123 1 185 0 9 0 18-1 27-1 9 2 14 11 17 4 2 7 5 13 6v-72c0-54 0-108 0-162 0-7 0-12-9-10z m60 179v-45c0-42 0-84 0-126 0-12-8-8-14-8-6-1-10 0-10 8 1 80 1 160 1 241 0 8 12 19 20 18 5-1 3-5 3-7 0-27 0-54 0-81z m50-8v-29h0c0-45 0-89 0-134 0-7-1-11-9-9-6 1-15-5-15 9 1 87 1 175 1 263 0 6 16 17 21 14 4-2 2-6 2-8 0-35 0-71 0-106z m51-161c0-9-2-12-11-11-8 0-13 0-13 11 1 42 0 84 0 125v126c0 11 0 10 10 6 11-5 14-12 14-24 0-78 0-156 0-233z m48-11c-7-1-13-1-19 1-3 1-2 4-2 6v118h0c0 37 0 75 0 112 0 9 2 11 11 8 10-2 13-7 13-18-1-72 0-144 0-217 0-3 2-8-3-10z m53 10c0-6-1-10-9-10-15 0-14-1-14 14v104c0 36 0 72-1 108 0 8 3 9 10 8 14-1 14-1 14-15l0-209z m50 107c0-36 0-72 0-108 0-6-1-10-9-9-6 1-14-3-14 9 0 72 0 143 0 214 0 3-1 8 3 10 6 2 12 3 18 1 4-1 2-6 2-9 0-36 0-72 0-108z m51 7c0-39 0-77 0-115 0-9-4-10-11-9-7 0-12-1-12 9 0 75 0 149 0 224 0 7 15 17 21 14 4-2 2-6 2-9 0-38 0-76 0-114z m50 39v-27h1v-125c0-12-1-11-14-11-10-1-10 4-10 11 0 80 0 160 0 240 0 7 14 20 21 19 4 0 2-4 2-7 1-33 0-67 0-100z m51-154c0-6-1-10-9-9-6 1-15-4-15 9 1 45 0 90 0 135v132c0 11 0 11 11 8 11-2 13-8 13-19 0-85 0-170 0-256z m48-9c-6-2-13-2-19 0-4 2-2 7-2 10 0 41 0 82 0 124v124c0 11 0 10 10 7 11-4 14-10 14-21-1-78 0-155-1-233 1-4 3-9-2-11z m51 0c-7-2-13-2-20 0-2 1-1 5-1 7v228c0 11 0 10 9 6 11-4 15-11 15-24-1-69 0-138 0-207-1-3 1-9-3-10z m53 9c0-14-9-8-15-9-6-1-9 1-9 8 0 67 0 135 0 203 0 1 1 2 1 5 7-6 13-10 19-14 4-3 4-6 4-10 0-61-1-122 0-183z m38-9c-5 0-11-2-11 7 0 54 0 108 0 161 0 1 1 2 1 4 12-13 19-27 19-44 0-41 0-81 0-121 0-7-3-8-9-7z m-620 615c-15-10-24-24-25-41-3-47 16-84 56-110 3-2 5-5 6-9 19-54 54-95 103-125 51-30 105-39 162-18 68 24 116 71 141 140 2 4 3 9 8 12 34 20 51 51 56 89 3 26-3 49-28 64-3 2-3 4-3 7 1 25 1 50-4 77 10-7 14-17 21-25 1 3 2 4 3 6 30 70 7 154-55 199-17 13-36 22-59 22-7 0-15-6-19-4-6 2-7 11-12 17-30 39-70 57-118 56-37 0-71-8-105-22-50-19-95-47-126-92-17-24-26-50-25-81 15 8 28 19 47 13-22-15-36-33-41-59-6-24-4-48 3-73 5 10 10 19 19 25 1-2 1-3 1-5-1-18-2-36 0-54 0-5-3-7-6-9z m26-18c8 2 9 6 8 13-3 29-3 57 2 86 1 5 3 7 7 9 21 8 42 14 64 19 6 1 8-1 8-6 3-14-1-26-8-37-4-7-2-9 5-9 39-4 74 8 107 26 15 8 29 17 43 25 10 6 13 5 14-6 2-16-8-26-18-36-3-3-7-5-9-10 23-4 46-2 68 4 17 5 32 12 45 24 7 6 12 13 15 22 1 5 4 6 8 4 11-5 18-12 23-22 10-19 14-40 18-61 1-3 2-6 3-11 6 12 12 21 19 33 3-10 3-18 2-26 0-10-1-21-2-32-1-5 0-7 5-8 24-8 31-19 27-44-3-24-15-44-33-61-2-2-6-5-10-6-13-1-14-11-17-20-27-74-79-120-156-137-1 0-3 0-5 0 5 3 10 6 14 9 6 4 11 10 11 17 2 12-3 18-15 16-17-3-34-2-52 0-12 2-18-5-15-18 3-13 14-17 24-24-23 1-45 8-65 20-50 28-85 69-101 125-2 6-5 9-11 11-17 4-26 18-34 32-9 14-14 29-14 47 1 17 8 28 25 32z m139-175c22-1 45-3 65 10 13 7 15 7 27 0 2-2 5-3 8-4 13-5 27-7 41-6 5 0 9 0 14 0 8 0 9 3 7 10-3 10-10 17-19 22-14 9-30 12-47 13-28 3-55 1-80-13-10-5-18-12-20-24-1-3-2-7 4-8z" />
<glyph glyph-name="girl-alt" horiz-adv-x="1000" unicode="&#xecf2;" d="M999-129c1 46-1 92-8 138-10 62-38 110-99 133-2 1-5 2-7 3-44 20-90 33-136 46-27 8-54 16-82 24 0-1 0-2 0-3l1-7c2-30 4-61-8-89-32-77-80-143-149-192-8-6-14-6-22 0-69 49-116 115-149 192-6 14-8 30-9 46 0 18 0 36 2 53-1 0-2 0-3 0-54-16-107-32-160-49-39-12-77-28-111-53-13-11-23-23-30-39-10-25-18-51-22-78-2-17-4-35-6-52 0-28 0-56 0-84-1-8 1-10 9-10 330 0 660 0 989 0 0 7 0 14 0 21z m-740 459c33-1 66 1 99 3 20 1 39 2 59 5 0 3-2 4-3 6-44 52-64 113-69 180-1 6 1 8 7 9 9 0 17 2 24 4 73 23 130 64 164 136 3-10 7-19 11-28 20-40 52-65 96-76 7-1 9-4 9-11-1-17 0-33-2-49-7-62-27-118-68-165-1-2-3-3-2-6 11-1 22-3 33-4 43-2 86-5 130-3 6 0 9 2 11 8 17 34 27 71 30 109 8 77-5 152-35 223-28 66-72 120-134 158-29 18-60 24-94 14-4-1-8 0-12 1-37 10-74 8-110-7-56-24-98-64-129-115-41-67-61-140-64-218-2-55 6-109 29-160 4-10 10-14 20-14z m289-127c-18-17-39-21-62-17-13 2-25 8-34 17-5 6-13 6-18 1-5-5-5-12 0-18 1-2 3-3 5-5 17-16 38-22 61-22 4 0 9 0 13 1 21 3 39 10 53 26 5 6 5 13 0 18-5 5-13 5-18-1z" />
<glyph glyph-name="girl" horiz-adv-x="1000" unicode="&#xecf3;" d="M997-129c0 46-1 91-8 137-10 62-38 109-99 133-2 1-4 2-7 3-43 20-90 32-136 46-26 8-53 16-80 24-1-2-1-3-1-4l1-7c3-30 4-60-8-89-32-76-79-141-148-190-8-6-14-6-22 0-69 49-116 114-148 191-6 14-9 30-9 46-1 18 0 35 2 53-2 0-3 0-4-1-53-16-106-31-159-48-39-12-77-28-110-53-13-11-24-23-30-39-10-25-18-51-22-77-2-18-4-35-6-53 0-27 0-55 0-83-1-8 1-10 9-10 328 0 657 0 985 0 0 7 0 14 0 21z m-634 476c16-9 33-18 53-23-102 94-92 253-60 316 3-2 4-5 6-8 53-78 128-120 222-129 34-3 68 1 100 10 8 2 10-1 9-8-1-8-2-16-3-24-9-60-32-113-78-156 4-1 5 0 8 1 38 15 73 37 102 66 97 95 105 246 20 351-54 66-125 101-210 106-86 6-162-20-223-80-80-80-103-175-65-282 21-61 64-107 119-140z" />
<glyph glyph-name="group" horiz-adv-x="1000" unicode="&#xecf4;" d="M753 430c50 0 90 40 90 89 0 50-40 90-90 90-49 0-89-40-89-90 0-49 40-89 89-89z m-506 0c49 0 89 40 89 89 0 50-40 90-89 90-49 0-90-40-90-90 1-49 41-89 90-89z m253 93c73 0 132 59 132 132 0 73-59 133-132 133-73 0-132-60-132-133 0-73 59-132 132-132z m253-128c-14 0-27-2-40-6 17-33 27-69 27-108v-286h156v258c0 79-64 142-143 142z m-649-142v-258h156v286c0 39 11 75 27 108-13 4-26 6-40 6-79 0-143-63-143-142z m396 235c-114 0-207-93-207-207v-369h414v369c0 114-93 207-207 207z" />
<glyph glyph-name="hotel-boy-alt" horiz-adv-x="1000" unicode="&#xecf5;" d="M305 682c14 6 28 11 43 16 79 25 159 34 241 19 42-7 82-18 121-34 8-3 9-2 9 7-1 13 0 27 0 40 0 13 0 26 0 40-1 23-13 40-35 48-15 6-32 11-48 15-102 28-203 20-302-14-22-8-36-25-36-47 0-28 0-56 0-84 0-6 1-8 7-6z m16-281c5-2 7-5 9-10 16-46 46-82 88-106 45-26 91-33 140-15 57 21 97 61 119 119 1 4 2 8 6 10 27 16 42 40 47 70 4 23 2 45-20 60-3 3-3 6-2 9 2 9 3 17 5 26l0 1c1 9 2 17 3 26 0 1 0 1 0 2 2 24 4 56 1 72-38 11-74 25-113 32-87 15-172 6-255-21-15-5-37-10-52-16l0-1c-6-39-4-79 3-118 1-6 0-10-6-14-8-5-13-14-15-23-11-34 10-86 42-103z m1 113c5 1 6 3 5 8-1 37 3 72 28 101 2 2 4 4 6 6 16 14 19 14 37 2 28-19 56-38 88-50 35-13 70-17 107-15 28 1 56 5 83 14 5 1 5-2 6-5 1-18 0-36-2-53 0-3-1-6 4-7 24-4 26-21 24-39-3-21-13-38-29-52-2-2-5-4-8-4-11-1-12-9-15-17-23-65-68-105-136-118-5-1-11-1-19-2-52 3-93 29-125 70-14 17-23 37-29 58 0 2 0 6-5 6-12 2-20 11-27 21-10 14-18 29-17 47 1 17 7 25 24 29z m606-477c-1 26-12 48-32 64-10 9-21 15-33 20-30 14-63 22-95 31-36 9-73 18-106 36-6 3-8 6-8 13 1 16 0 32 0 48-3 0-5-2-6-3-23-20-48-36-76-45-15-5-21-12-20-28 1-25-20-46-45-49-25-3-49 12-56 37-3 9-2 18-2 26 0 4-1 7-5 8-36 11-67 29-97 56 0-13-2-23 0-32 5-24-7-33-27-40-36-15-74-24-112-34-31-8-61-17-88-33-32-18-48-46-47-83 0-19 0-38 0-57-1-10 3-18 11-25 12-10 26-18 40-24 90-41 186-59 283-69 69-6 138-5 207 2 81 9 160 25 236 55 23 9 46 19 65 35 7 6 13 12 13 22 0 23 1 46 0 69z m-424-120c-20 0-36 16-36 36s16 36 36 36c20 0 36-16 36-36s-16-36-36-36z m0 97c-20 0-36 17-36 36s16 36 36 36c20 0 36-16 36-36s-16-36-36-36z m81 453c19-1 35 14 35 33 0 19-14 34-33 34-19 1-35-14-35-33 0-19 15-34 33-34z m-170 0c18 0 33 15 34 33 0 19-15 34-34 34-18 1-33-14-34-32-1-19 15-35 34-35z m28-99c-1-2 0-5 1-7 15-17 33-30 57-31 22 1 38 13 53 28 2 3 6 6 4 10-3 5-8 2-11 1-19-5-38-7-58-5-13 1-26 3-38 6-3 1-6 1-8-2z" />
<glyph glyph-name="hotel-boy" horiz-adv-x="1000" unicode="&#xecf6;" d="M319 408c4-2 7-5 8-9 17-48 47-83 90-109 45-26 92-32 141-14 58 21 98 62 121 120 1 4 2 8 6 10 27 16 43 41 48 71 4 24 1 46-20 61-4 3-3 6-3 9 4 18 6 36 8 54 0 4 2 7 5 9 19 11 33 28 45 45 4 6 4 9-1 13-13 11-27 21-42 31 16 6 30 8 47 8-31 36-71 53-115 65 7 7 14 11 22 14 7 4 16 4 25 6-62 32-126 39-193 20 6 16 17 27 29 38-2 0-2 0-3 0-52-9-101-24-139-63-4-4-6-4-7 2-2 10-1 20 4 29-20-4-44-19-59-39-26-32-37-70-42-110-6-40-4-79 3-119 1-6 0-10-6-14-8-6-13-14-16-24-11-34 11-86 44-104z m0 115c5 1 6 3 6 8-2 37 3 73 28 102 2 2 4 4 6 6 17 14 19 15 37 2 29-19 57-38 90-51 35-13 71-17 108-15 28 2 57 5 84 14 5 2 5-1 6-5 1-18 0-36-1-53-1-4-2-7 3-8 24-4 27-20 24-39-2-21-13-38-29-52-2-2-5-5-8-5-11-1-12-9-15-17-23-66-69-106-137-120-6-1-12-1-20-1-53 3-94 29-127 71-14 17-23 37-29 58 0 3 0 6-5 7-12 2-21 10-28 20-10 14-17 30-17 48 1 17 7 25 24 30z m614-483c-1 26-11 48-32 65-10 8-21 14-33 20-31 14-64 22-97 30-37 10-73 19-107 37-6 3-8 7-8 14 0 16 0 32 0 48-4 0-5-2-7-3-22-21-48-36-76-46-16-5-21-11-21-28 1-26-20-46-46-50-25-3-49 13-56 38-3 9-2 18-2 27 0 4-1 6-5 7-36 12-68 30-99 57 0-13-1-23 1-33 5-23-8-33-27-40-38-15-76-24-114-34-31-9-62-17-89-34-32-18-49-46-48-84 0-19 0-38 0-57-1-11 4-19 12-26 12-10 26-18 40-24 91-42 188-60 287-70 70-6 139-5 209 2 82 9 162 25 239 56 24 9 46 19 66 35 7 5 14 12 14 22-1 24 0 47-1 71z m-433-121c-20 0-36 16-36 36s16 37 36 37c20 0 36-17 36-37s-16-36-36-36z m0 98c-20 0-36 16-36 36 0 20 16 36 36 36 20 0 36-16 36-36 0-20-16-36-36-36z m86 458c19-1 35 15 35 33 1 20-14 35-33 35-19 1-35-14-35-33-1-19 14-35 33-35z m-173 0c19 0 34 15 35 33 0 19-15 35-34 35-19 1-34-14-35-33 0-19 15-35 34-35z m29-100c-1-2 0-5 1-7 16-17 33-31 57-32 23 1 39 13 54 29 3 3 6 6 4 10-3 5-7 2-11 1-19-5-39-7-59-6-13 1-26 4-38 7-3 1-6 1-8-2z" />
<glyph glyph-name="kid" horiz-adv-x="1000" unicode="&#xecf7;" d="M666 165c-13 0-52 0-60 0h-2c-6 0-12-4-15-9l-1-1 0 0c-7-12-65-113-88-114-23 1-81 102-88 114l0 0c-1 1-1 1-1 1-3 5-9 9-15 9h-2c-8 0-47 0-60 0-58 0-136-54-136-123v-110h604v110c0 69-78 123-136 123z m271 124c0 0 0 0 0 0-21 92 26 206-47 297-65 82-121-4-137 1-17 41-44 79-76 109-51 46-113 72-177 72-64 0-126-26-177-72-32-30-58-68-76-109-16-5-72 81-137-1-73-91-26-205-47-297 0 0 0 0 0 0 0-2 0-4 0-5 0-11 8-20 18-21l2 0h0c110-6 157 47 170 86l1-1c24-42 58-80 98-108 46-33 97-51 148-52h0c51 1 102 19 149 52 39 28 74 66 97 108l1 1c13-39 60-92 170-86h0c1 0 1 0 2 0h0c10 1 19 10 19 21 0 1-1 3-1 5z m-197 97c-1 0-2 0-3 1l-13 1-6-12c-36-71-119-147-218-150-99 3-182 79-218 150l-6 12-13-1c-1-1-2-1-3-1-28 0-43 20-43 58 0 13 3 56 35 65 0 0 129-3 227 27 21 7 28 4 46-1 98-28 223-26 223-26 32-9 35-52 35-65 0-38-15-58-43-58z" />
<glyph glyph-name="man-in-glasses" horiz-adv-x="1000" unicode="&#xecf8;" d="M926 56c-2 43-14 79-54 100-12 6-23 12-36 17-46 19-94 38-141 56-22 9-24 8-30-15-29-111-59-223-89-334-1-6-2-12-7-18-1 5-2 8-3 12-6 56-14 112-19 167-5 48-19 96 2 144 3 8-3 8-9 8-25 0-49 0-74 0-13 1-18-2-12-16 9-26 12-52 6-80-4-22-6-45-9-68l-20-166h-3c-1 2-2 4-3 7-30 114-61 228-91 342-7 24-9 26-33 16-46-18-92-36-138-54-21-9-40-20-57-35-17-14-28-31-30-54-6-61-12-122-18-182-3-37 13-53 50-53 103 0 206 0 309 0 160 0 319 0 478 0 32 0 50 20 47 50-6 52-13 104-16 156z m-629 402c11-3 14-9 18-17 21-52 48-100 92-136 33-27 70-41 114-34 31 4 57 19 80 40 40 38 67 84 87 135 1 3 1 10 6 10 18 0 25 14 36 24 19 15 19 35 16 56-2 10-7 15-18 14-8-1-9 2-7 10 6 27 8 56 10 87-1 7-1 17-2 28-4 22-10 42-31 54-5 2-6 6-9 10-21 40-50 72-92 91-26 12-55 18-84 20-77 4-141-20-183-89-3-5-7-6-12-8-17-7-29-19-37-36-11-21-16-43-17-67-2-31 3-61 9-92 1-5 2-8-6-8-6 0-10-5-12-10-10-31 11-74 42-82z m48 67c0 10 1 19 11 23 5 2 10 4 13-2 4-5 9-5 15-5 7 1 9-1 8-9-1-13 8-22 20-22 12 1 19 11 17 24-1 6 1 7 6 7 6 0 12-1 18 3 3 2 4-1 6-3 11-13 11-31-1-44-21-22-48-30-79-25-17 4-30 22-33 46 0 3 0 5-1 7z m288-112c-18-33-39-63-69-85-45-33-92-31-136 6-36 31-59 72-78 116 0 0 0 2 0 4 31-14 62-11 92 2 27 13 48 32 48 65 0 8 5 6 10 6 4 0 10 2 11-6 8-46 43-75 92-76 8 0 17 0 25 1 8 2 15 6 24 8-5-16-12-28-19-41z m-26 57c-20 1-39 6-56 19-10 8-17 17-17 31 0 8 3 14 8 21 2 3 4 3 8 3 13-2 23-4 23-22 0-9 13-13 22-11 10 3 16 11 13 20-2 11 3 11 10 10 4 0 9 0 12 3 10 8 20 5 25-7 9-28-18-67-48-67z m-253 220c4 3 5 4 8 0 42-52 100-66 162-69 26-1 51 1 76 9 13 3 18 10 14 18-4 11-12 9-21 7-47-13-94-11-140 4-1 0-3 2-5 2 25-4 48-6 72-5 42 1 80 13 113 39 9 7 12 4 16-4 13-21 19-45 22-70 3-22 4-44 3-70-15 23-36 20-57 20l-64 0c-13 0-23-6-29-17-4-5-8-7-14-6-4 0-7 0-11 0-12-2-20 1-27 12-5 8-14 11-24 11-26 0-53 0-79 0-23 0-27-2-42-17-16 41-3 107 27 136z" />
<glyph glyph-name="people" horiz-adv-x="1000" unicode="&#xecf9;" d="M713 249c0 63 0 126-1 188 0 38-24 63-62 63-100 1-200 1-300 0-38 0-62-25-62-63-1-66-1-132 0-198 0-39 24-63 63-65 11-1 23 0 38 0 0-58-1-113 0-167 1-48 24-71 72-72 23-1 45-1 68 0 61 0 82 21 82 82 0 51 0 102 0 154 12 1 20 2 27 2 53 2 75 24 75 76z m-463-44c-5 88-2 176-2 269-41 0-90 2-139 0-30-2-45-24-46-54-1-53-1-107 0-160 1-34 19-52 52-57 10-1 20-2 30-3 1-5 3-8 3-11 1-36 1-71 1-106 0-66 14-78 80-81 103-4 113 22 105 115-44 14-82 40-84 88z m687 217c0 25-13 48-38 50-50 4-101 1-150 1 3-24 6-44 7-64 0-55 0-109 0-164 0-75-17-100-89-130-8-101 3-112 102-112h3c66 0 79 14 79 81v116c16 2 27 2 39 4 29 5 46 23 47 54 1 54 1 109 0 164z m-436 120c61 0 109 48 110 110 0 63-49 114-111 114s-112-52-111-115c1-62 50-109 112-109z m-258-32c51 0 93 43 92 94 0 51-43 94-94 93-52 0-92-42-92-94 1-52 43-94 94-93z m516 0c52 0 92 42 92 94s-42 94-93 93c-51-1-94-44-93-94 0-51 44-94 94-93z" />
<glyph glyph-name="support" horiz-adv-x="1000" unicode="&#xecfa;" d="M332 94l-130-60c-19-8-39-21-47-41 0 0-15-34-32-81h351l21 135-101 99-62-52z m514-101c-8 21-28 33-48 41l-129 60-63 52-100-99 20-135h351c-16 47-31 81-31 81z m-662 334h37c18 0 32 14 32 32v124c0 14-9 26-22 30 15 137 111 217 267 222h5c156-5 251-85 267-222-13-4-22-16-22-30v-124c0-18 14-32 32-32h37c18 0 32 14 32 32v124c0 15-11 28-26 31-7 76-36 140-84 187-51 50-124 79-211 86 0 0-9 1-27 1-19 0-28-1-28-1-87-7-160-36-211-86-48-47-77-111-84-187-15-3-26-16-26-31v-124c0-17 14-32 32-32z m550 143c2 144-67 230-234 230-167 0-235-86-234-230 3-208 102-331 234-331s232 123 234 331z" />
<glyph glyph-name="user-alt-1" horiz-adv-x="1000" unicode="&#xecfb;" d="M400 0c0 37 0 74 0 111 0 4-1 7-5 9-30 20-61 41-91 61-3 2-4 4-5 7-9 73-18 146-27 219-2 13-3 26-5 39 0 3 1 4 4 5 33 8 66 15 100 20 40 7 80 12 121 12 29 1 58-1 86-5 51-6 101-15 151-27 4-1 5-2 4-5-5-41-10-83-15-124-6-44-12-88-17-132 0-5-2-8-7-11-30-20-60-40-90-60-3-2-4-4-4-7 0-75 0-149 0-223 0-5-1-7-4-9-24-13-49-24-76-28-23-4-45-1-67 6-17 6-33 13-49 23-3 1-4 4-4 7 0 37 0 75 0 112z m-67 683c0 93 75 167 167 167 92 0 167-75 167-167 0-92-75-166-167-166-92 0-167 74-167 166z" />
<glyph glyph-name="user-alt-2" horiz-adv-x="1000" unicode="&#xecfc;" d="M524-150c-106 0-192 21-273 66-94 54-125 120-105 235 20 125 84 223 185 298 15 12 24 10 36-3 37-40 75-79 111-119 12-14 19-16 32 1 31 39 65 77 97 117 10 13 18 17 34 7 123-78 192-189 215-332 23-145-69-200-171-240-56-22-115-31-161-30z m-33 609c-105 0-194 91-194 197 1 104 88 192 193 194 106 2 198-87 199-192 0-110-87-198-198-199z" />
<glyph glyph-name="user-alt-3" horiz-adv-x="1000" unicode="&#xecfd;" d="M499-122c-160 0-319 1-478 0-17 0-19 6-20 20-8 101 52 156 131 199 50 27 106 43 158 65 21 9 42 18 60 32 23 18 28 39 13 64-12 19-26 37-39 56-65 98-89 204-61 319 27 116 125 193 244 189 100-3 174-52 214-144 53-125 30-244-40-357-11-19-26-36-38-54-23-33-18-58 17-80 40-25 84-39 128-55 61-22 119-50 166-98 41-41 49-92 45-147-1-12-9-9-15-9-57 0-114 0-171 0-105 0-209 0-314 0v0z" />
<glyph glyph-name="user-alt-4" horiz-adv-x="1000" unicode="&#xecfe;" d="M838 142c-42 28-89 44-134 65l-25 11c-42 19-57 58-39 101 12 27 22 55 27 84 1 6 2 11 10 10 15-1 24 9 28 22 8 24 16 48 23 72 2 10 3 19 1 29-2 9-7 18-17 19-12 0-13 5-13 15 2 16 2 32 5 48 15 111-61 213-172 229-3 1-6 2-9 3h-43c-6-5-14-3-21-5-108-25-173-121-159-232 2-16 5-31 4-47 0-6-1-10-9-11-16-2-20-13-21-27-1-20 8-37 13-56 2-10 6-19 9-29 5-18 12-31 33-30 6 1 7-3 8-8 5-31 15-61 28-90 11-23 6-47-5-70-6-14-19-19-31-25-43-20-87-36-129-58-14-7-27-15-39-24-20-14-35-32-42-56-14-47-19-95-10-143 7-32 26-53 58-63 32-10 64-14 97-17 44-4 88-6 133-7 4 0 9-1 14-2h177c37 2 75 4 112 6 42 2 84 7 126 17 44 10 65 35 69 81 3 43-2 86-13 129-7 26-22 44-44 59z" />
<glyph glyph-name="user-alt-5" horiz-adv-x="1000" unicode="&#xecff;" d="M939 15c-42 115-114 203-220 263-5 3-9 3-14-1-57-48-123-74-197-76-80-1-151 24-212 75-6 5-10 5-16 2-42-24-81-54-114-90-70-75-112-164-128-266-2-14-3-27-5-41v-31c308 0 615 0 923 0 8 0 11 2 11 11-2 53-10 104-28 154z m-439 270c156 1 282 127 282 284 0 155-127 281-282 281-157 0-282-127-282-284 1-155 128-281 282-281z m174 175c-47-51-99-90-169-92-73-3-125 39-172 92h341z" />
<glyph glyph-name="user-alt-6" horiz-adv-x="1000" unicode="&#xed00;" d="M361 397c-156 117-128 294-43 378 100 101 260 100 357-2 87-90 104-260-42-374 74-30 133-78 179-141 85-116 115-247 105-390-1-20-13-18-26-18-152 0-305 0-457 0-109 0-219 1-328 0-16 0-23 3-24 20-11 190 44 353 193 477 26 21 55 36 86 50z" />
<glyph glyph-name="user-alt-7" horiz-adv-x="1000" unicode="&#xed01;" d="M969 31c-44 122-121 217-234 281-6 3-10 4-16-1-61-51-131-79-211-81-85-2-161 25-226 80-7 5-11 5-17 2-46-26-87-58-122-96-75-81-121-176-137-285-2-15-4-29-6-44v-33c329 0 659 0 988 0 9 0 12 2 12 11-2 57-11 112-31 166z m-474 260c159-1 284 123 283 280-2 158-130 276-278 275-156 0-278-124-277-281 1-148 121-272 272-274z" />
<glyph glyph-name="user-female" horiz-adv-x="1000" unicode="&#xed02;" d="M913 208l-214 102-91 43c0 1 2 2 6 2l2 3h118c23 0 34 11 34 32v88h-2c-4 125-40 224-110 297-37 41-79 65-125 72h-11l-3 3h-32l-5-3h-11c-46-7-87-30-123-70-71-74-108-174-112-299v-88c0-21 11-32 32-32h121l5-5c2-2 3-3 5-3l-88-40-222-102c-21-8-32-27-32-56v-243c0-16 5-30 15-41 10-12 22-18 36-18h788c14 0 26 6 36 18 10 11 15 25 15 41v243c0 29-11 48-32 56z" />
<glyph glyph-name="user-male" horiz-adv-x="1000" unicode="&#xed03;" d="M500-149h-357c-16 0-31 1-45 9-24 13-38 33-38 61 0 39 1 79 0 119-1 41 16 74 47 101 31 26 66 43 103 57 55 21 108 47 161 72 8 4 11 9 12 17 2 19 4 38 6 57 0 5-1 9-5 12-31 32-52 69-63 112-2 6-5 8-12 9-12 1-20 9-23 21-4 22-6 44-10 65-3 14 2 24 14 29 6 3 7 5 6 12-7 36-4 71 5 106 17 64 73 114 133 117 16 0 30 3 44 11 25 14 52 16 79 7 73-25 123-73 144-148 8-30 4-61 0-91 0-7-2-11 7-13 13-4 19-14 16-28-3-22-7-44-11-67-2-13-11-21-24-21-6-1-10-3-11-9-7-42-30-76-59-105-8-8-10-15-8-25 2-15 4-31 5-46 0-12 5-18 16-23 58-28 117-55 177-79 30-13 59-28 85-50 29-26 46-58 46-97 0-41 0-82-1-122 0-36-25-64-61-68-39-5-79-2-119-2-86-1-173 0-259 0z" />
<glyph glyph-name="user-suited" horiz-adv-x="1000" unicode="&#xed04;" d="M500 372c-129 1-231 104-231 235 0 123 107 229 231 228 128-1 231-105 231-233 0-125-104-230-231-230z m-266-506c-71 0-141 0-211-1-17 0-24 4-23 23 5 145 54 273 150 381 30 35 67 63 106 88 21 14 27-2 33-17 25-62 50-125 75-188 34-84 68-168 102-252 12-31 10-34-25-34-69 0-138 0-207 0v0z m528 0c-70 0-140 0-210 0-27 0-30 4-20 28 60 150 120 299 180 448 10 25 15 26 39 11 139-92 213-225 242-387 4-26 4-52 7-79 2-18-6-21-22-21-72 0-144 0-216 0z m-262 60c-22 55-42 103-61 151-20 48-38 96-58 144-7 16-8 25 8 36 33 22 64 46 95 70 11 9 19 10 31 1 32-25 65-49 99-73 8-7 14-12 9-25-41-99-80-198-123-304z" />
<glyph glyph-name="user" horiz-adv-x="1000" unicode="&#xed05;" d="M670 390c-5 2-10 3-15 4-45-28-98-44-155-44-57 0-111 16-156 45-118-26-208-135-211-252-1-62-3-124-3-186 0-58-4-60 26-67 0 0 379-89 689-1 16 6 26 15 25 35-1 71 2 143-1 214-5 119-83 220-199 252z m-168 27c118 2 214 98 214 217 0 120-94 215-213 216-121 1-219-96-220-215-1-119 101-220 219-218z" />
</font>
</defs>
</svg>
